[MV] Homme (Changmin (2AM) & Lee Hyun (8eight)) - Man Should Laugh [Корея, 2011, HDTVRip][KOR+SUB]

 Статистика раздачи 
Размер: 42.5 МБ   |  Зарегистрирован: 07 июн 2018, 22:29   |   .torrent скачан: 0 раз
Сидеров: 0  [ 0 байт/сек ]     Личеров: 0  [ 0 байт/сек ]  
  
Аватара пользователя
 
Раздал: 0 байт
Скачал: 0 байт
Ратио: Inf.
Сообщения: 114865
Стаж: 8 лет 2 месяца 13 дней

Homme (Chang Min & Lee Hyun) - Man Should Laugh
Год выпуска: 2011
Страна: Южная Корея
Жанр: KPop
Продолжительность: 03:46
Доп. информация:
Homme - дует, состоящих из Чан Мина (2AM) и Ли Хёна (8eight)
Man Should Laugh - их второй совместный сингл.
Зажигательная, яркая песня и дерущиеся мальчики - отлично подходят друг другу))
Перевод, тайминг, оформление - amaneshka
ОБЯЗАТЕЛЬНО УСТАНОВИТЕ ШРИФТЫ!!!
Video: MPEG4 Video (H264) 1076x720 [Video]
Audio: AAC 44100Hz stereo 1411Kbps [Audio]
Format : MPEG-4
Format profile : Base Media / Version 2
Codec ID : mp42
File size : 42.4 MiB
Duration : 3mn 44s
Overall bit rate : 1 582 Kbps
Encoded date : UTC 2011-07-17 15:30:48
Tagged date : UTC 2011-07-17 15:30:48
gsst : 0
gstd : 224998
gssd : B4A7DDAC8MH1311105976951111
gshh : v8.cache7.c.youtube.com
Video #1
ID : 1
Format : AVC
Format/Info : Advanced Video Codec
Format profile : High@L3.1
Format settings, CABAC : Yes
Format settings, ReFrames : 1 frame
Codec ID : avc1
Codec ID/Info : Advanced Video Coding
Duration : 3mn 44s
Bit rate mode : Variable
Bit rate : 1 424 Kbps
Maximum bit rate : 3 167 Kbps
Width : 1 280 pixels
Height : 720 pixels
Display aspect ratio : 16:9
Frame rate mode : Variable
Frame rate : 24.000 fps
Minimum frame rate : 23.810 fps
Maximum frame rate : 24.390 fps
Resolution : 24 bits
Colorimetry : 4:2:0
Scan type : Progressive
Bits/(Pixel*Frame) : 0.064
Stream size : 38.2 MiB (90%)
Encoded date : UTC 1970-01-01 00:00:00
Tagged date : UTC 2011-07-17 15:30:49
Audio #2
ID : 2
Format : AAC
Format/Info : Advanced Audio Codec
Format version : Version 4
Format profile : LC
Format settings, SBR : No
Codec ID : 40
Duration : 3mn 44s
Bit rate mode : Variable
Bit rate : 152 Kbps
Maximum bit rate : 175 Kbps
Channel(s) : 2 channels
Channel positions : L R
Sampling rate : 44.1 KHz
Resolution : 16 bits
Stream size : 4.08 MiB (10%)
Title : IsoMedia File Produced by Google, 5-11-2011
Encoded date : UTC 2011-07-17 15:30:49
Tagged date : UTC 2011-07-17 15:30:49
Скорость у меня маленькая, но раздаю круглые сутки!

Другие мои переводы:
здесь http://rutracker.org/forum/tracker.php?rid=21037789
и здесь http://rutracker.org/forum/tracker.php?rid=6489857
Не забывайте говорить Спасибо. Не уходите с раздачи!   
Торрент: Зарегистрирован [07 июн 2018, 22:29] Для скачивания .torrent
необходима регистрация
Или скачать с помощью
MediaGet
Статус:
Проверен
 
.torrent скачан: 0 раз
Хэш: 7074f446361aa653d1f2b93484bd4418ac43497c
Размер: 42.5 МБ (44 561 752 байт)
   Стать Автором раздачи
   
Цитата
  • Похожие торренты
    Ответы
    Просмотры
    Последнее сообщение

Вернуться в VMV и др. ролики

Кто сейчас на конференции

Сейчас эту тему просматривают: нет зарегистрированных пользователей и гости: 1