[MV] Super Junior - Mr.Simple [Корея, 2011, HDTVRip][KOR+SUB]

 Статистика раздачи 
Размер: 94.64 МБ   |  Зарегистрирован: 07 июн 2018, 22:28   |   .torrent скачан: 0 раз
Сидеров: 0  [ 0 байт/сек ]     Личеров: 0  [ 0 байт/сек ]  
  
Аватара пользователя
 
Раздал: 0 байт
Скачал: 0 байт
Ратио: Inf.
Сообщения: 114865
Стаж: 8 лет 2 месяца 13 дней

Super Junior - Mr.Simple

Год выпуска: 2011
Страна: Южная Корея
Жанр: KPop
Продолжительность: 04:52 мин
Перевод: субтитры
Перевод, тайминг, оформление - amaneshka
ОБЯЗАТЕЛЬНО УСТАНОВИТЕ ШРИФТЫ!!!
Дополнительная информация:
Mr.Simple заглавной трек пятого альбома Супер Джуниор - Mr.Simple
Video: MPEG4 Video (H264) 1280x720 [Video]
Audio: AAC 44100Hz stereo 1411Kbps [Audio]
Format : MPEG-4
Format profile : Base Media / Version 2
Codec ID : mp42
File size : 94.4 MiB
Duration : 4mn 52s
Overall bit rate : 2 708 Kbps
Encoded date : UTC 2011-08-03 02:12:19
Tagged date : UTC 2011-08-03 02:12:19
gsst : 0
gstd : 292585
gssd : B4A7D0464HH1312481006461601
gshh : v24.lscache7.c.youtube.com
Video #1
ID : 1
Format : AVC
Format/Info : Advanced Video Codec
Format profile : High@L3.1
Format settings, CABAC : Yes
Format settings, ReFrames : 1 frame
Codec ID : avc1
Codec ID/Info : Advanced Video Coding
Duration : 4mn 52s
Bit rate mode : Variable
Bit rate : 2 550 Kbps
Maximum bit rate : 5 041 Kbps
Width : 1 280 pixels
Height : 720 pixels
Display aspect ratio : 16:9
Frame rate mode : Variable
Frame rate : 23.976 fps
Minimum frame rate : 23.810 fps
Maximum frame rate : 24.390 fps
Resolution : 24 bits
Colorimetry : 4:2:0
Scan type : Progressive
Bits/(Pixel*Frame) : 0.115
Stream size : 88.9 MiB (94%)
Encoded date : UTC 1970-01-01 00:00:00
Tagged date : UTC 2011-08-03 02:12:20
Audio #2
ID : 2
Format : AAC
Format/Info : Advanced Audio Codec
Format version : Version 4
Format profile : LC
Format settings, SBR : No
Codec ID : 40
Duration : 4mn 52s
Bit rate mode : Variable
Bit rate : 152 Kbps
Maximum bit rate : 219 Kbps
Channel(s) : 2 channels
Channel positions : L R
Sampling rate : 44.1 KHz
Resolution : 16 bits
Stream size : 5.30 MiB (6%)
Title : IsoMedia File Produced by Google, 5-11-2011
Encoded date : UTC 2011-08-03 02:12:20
Tagged date : UTC 2011-08-03 02:12:20

Скорость у меня маленькая, но раздаю круглые сутки!

Другие мои переводы:
здесь http://rutracker.org/forum/tracker.php?rid=21037789
и здесь http://rutracker.org/forum/tracker.php?rid=6489857
Не забывайте говорить Спасибо. Не уходите с раздачи!   
Торрент: Зарегистрирован [07 июн 2018, 22:28] Для скачивания .torrent
необходима регистрация
Или скачать с помощью
MediaGet
Статус:
Проверен
 
.torrent скачан: 0 раз
Хэш: e61f75dd050250335142177d404b3989a230bdb7
Размер: 94.64 МБ (99 242 036 байт)
   Стать Автором раздачи
   
Цитата

Вернуться в VMV и др. ролики

Кто сейчас на конференции

Сейчас эту тему просматривают: нет зарегистрированных пользователей и гости: 1