[MV] Super Junior - Daydream [2012, Корея, K-POP, HDRip] [KOR+SUB]

 Статистика раздачи 
Размер: 92.21 МБ   |  Зарегистрирован: 07 июн 2018, 22:28   |   .torrent скачан: 0 раз
Сидеров: 0  [ 0 байт/сек ]     Личеров: 0  [ 0 байт/сек ]  
  
Аватара пользователя
 
Раздал: 0 байт
Скачал: 0 байт
Ратио: Inf.
Сообщения: 114865
Стаж: 8 лет 2 месяца 7 дней

Super Junior - Daydream
Год выпуска: 2012
Страна: Южная Корея
Жанр: KPop
Продолжительность: 03:46
Перевод: субтитры (хардсаб)
Видео: sketsairoh
Описание:
Грустная баллада в исполнении СуперДжуниор.
Доп. информация:
Перевод, тайминг, оформление -amaneshka
Видео - sketsairoh
Video: MPEG4 Video (H264) 1280x720 29.97fps 3 295 Kbps[Video]
Audio: MPEG Audio Layer 3 44100Hz stereo 1411Kbps [Audio]
Format : MPEG-4
Format profile : Base Media
Codec ID : isom
File size : 92.2 MiB
Duration : 3mn 46s
Overall bit rate : 3 418 Kbps
Encoded date : UTC 2012-08-25 23:39:18
Tagged date : UTC 2012-08-25 23:39:18

Video #1

ID : 1
Format : AVC
Format/Info : Advanced Video Codec
Format profile : High@L4.1
Format settings, CABAC : Yes
Format settings, ReFrames : 3 frames
Codec ID : avc1
Codec ID/Info : Advanced Video Coding
Duration : 3mn 46s
Bit rate mode : Variable
Bit rate : 3 295 Kbps
Maximum bit rate : 6 091 Kbps
Width : 1 280 pixels
Height : 720 pixels
Display aspect ratio : 16:9
Frame rate mode : Constant
Frame rate : 29.970 fps
Resolution : 24 bits
Colorimetry : 4:2:0
Scan type : Progressive
Bits/(Pixel*Frame) : 0.119
Stream size : 88.9 MiB (96%)
Writing library : x264 core 65 r999kMod cc51047
Encoded date : UTC 2012-08-25 23:39:18
Tagged date : UTC 2012-08-25 23:39:38
Audio #2
ID : 2
Format : MPEG Audio
Format version : Version 1
Format profile : Layer 3
Codec ID : 6B
Duration : 3mn 46s
Bit rate mode : Variable
Bit rate : 121 Kbps
Nominal bit rate : 128 Kbps
Maximum bit rate : 139 Kbps
Channel(s) : 2 channels
Sampling rate : 44.1 KHz
Resolution : 16 bits
Stream size : 3.25 MiB (4%)
Writing library : LAME3.97
Encoding settings : -m s -V 4 -q 2 -lowpass 17 --abr 128
Encoded date : UTC 2012-08-25 23:39:37
Tagged date : UTC 2012-08-25 23:39:38
Скорость у меня маленькая, но раздаю круглые сутки!


здесь http://rutracker.org/forum/tracker.php?rid=21037789
и здесь http://rutracker.org/forum/tracker.php?rid=6489857

Не забывайте говорить Спасибо. Не уходите с раздачи!   
Торрент: Зарегистрирован [07 июн 2018, 22:28] Для скачивания .torrent
необходима регистрация
Или скачать с помощью
MediaGet
Статус:
Проверен
 
.torrent скачан: 0 раз
Хэш: a8031cf3e369aa2235885d63e2fbf2caf521f072
Размер: 92.21 МБ (96 687 940 байт)
   Стать Автором раздачи
   
Цитата

Вернуться в VMV и др. ролики

Кто сейчас на конференции

Сейчас эту тему просматривают: нет зарегистрированных пользователей и гости: 1