[MV] Super Junior M - Break down [Корея, Тайвань, 2013, HDTVRip] [CHI+SUB]

 Статистика раздачи 
Размер: 93.95 МБ   |  Зарегистрирован: 07 июн 2018, 22:28   |   .torrent скачан: 0 раз
Сидеров: 3  [ 0 байт/сек ]     Личеров: 1  [ 0 байт/сек ]  
  
Аватара пользователя
 
Раздал: 0 байт
Скачал: 0 байт
Ратио: Inf.
Сообщения: 114865
Стаж: 8 лет 2 месяца 13 дней

Super Junior M - BREAK DOWN
Год выпуска: 2013
Страна: Южная Корея/ Тайвань
Жанр: Pop
Продолжительность: 03:24
Перевод: субтитры (хардсаб)
Описание:
Break Down - заглавный трек второго альбома SuJuM.
Песня зажигательная, танец тоже, клип - как всегда! Судите сами)
Доп. информация:
Перевод, тайминг, оформление - amaneshka
Video: MPEG4 Video (H264) 1280x720 23.98fps 3 719 Kbps[Video]
Audio: AAC 44100Hz stereo 1411kbps [Audio]
Format : MPEG-4
Format profile : Base Media
Codec ID : isom
File size : 93.9 MiB
Duration : 3mn 24s
Overall bit rate : 3 850 Kbps
Encoded date : UTC 2013-01-06 15:50:33
Tagged date : UTC 2013-01-06 15:50:33
Video
ID : 1
Format : AVC
Format/Info : Advanced Video Codec
Format profile : High@L4.0
Format settings, CABAC : Yes
Format settings, ReFrames : 8 frames
Codec ID : avc1
Codec ID/Info : Advanced Video Coding
Duration : 3mn 24s
Bit rate mode : Variable
Bit rate : 3 719 Kbps
Maximum bit rate : 7 298 Kbps
Width : 1 280 pixels
Height : 720 pixels
Display aspect ratio : 16:9
Frame rate mode : Constant
Frame rate : 23.976 fps
Color space : YUV
Chroma subsampling : 4:2:0
Bit depth : 8 bits
Scan type : Progressive
Bits/(Pixel*Frame) : 0.168
Stream size : 90.7 MiB (97%)
Title : Imported with GPAC 0.4.6-DEV (build 1)
Writing library : x264 core 92 r1510 33d382a
Encoded date : UTC 2013-01-06 15:50:33
Tagged date : UTC 2013-01-06 15:50:33
Audio
ID : 2
Format : AAC
Format/Info : Advanced Audio Codec
Format version : Version 4
Format profile : LC
Format settings, SBR : No
Codec ID : 40
Duration : 3mn 24s
Bit rate mode : Variable
Bit rate : 128 Kbps
Maximum bit rate : 158 Kbps
Channel(s) : 2 channels
Channel positions : Front: L R
Sampling rate : 44.1 KHz
Stream size : 3.13 MiB (3%)
Encoded date : UTC 2013-01-06 15:50:33
Tagged date : UTC 2013-01-06 15:50:33
Скорость у меня маленькая, но раздаю круглые сутки!


здесь http://rutracker.org/forum/tracker.php?rid=21037789
и здесь http://rutracker.org/forum/tracker.php?rid=6489857

Не забывайте говорить Спасибо. Не уходите с раздачи!   
Торрент: Зарегистрирован [07 июн 2018, 22:28] Для скачивания .torrent
необходима регистрация
Или скачать с помощью
MediaGet
Статус:
Проверен
 
.torrent скачан: 0 раз
Хэш: f73d9b67d614cb113af7a8a39331bc4342a9df7b
Размер: 93.95 МБ (98 508 980 байт)
   Стать Автором раздачи
   
Цитата
  • Похожие торренты
    Ответы
    Просмотры
    Последнее сообщение

Вернуться в VMV и др. ролики

Кто сейчас на конференции

Сейчас эту тему просматривают: нет зарегистрированных пользователей и гости: 1