[MV] LED Apple - How Dare [Корея, 2011г.,KPop, HDTVRip] [KOR+SUB]

Аватара пользователя
Автор темы
Раздал: 0 байт
Скачал: 0 байт
Ратио: Inf.
Сообщения: 114865
Зарегистрирован: 8 лет 2 месяца 7 дней

LED Apple - How Dare

Год выпуска: 2011
Страна: Южная Корея
Жанр: KPop
Продолжительность: 03:37
Перевод: субтитры
Доп. информация:
Группа дебютировала как рок-группа всего год назад, но за это время их успел покинуть один из главных вокалистов в которого обнаружили туберкулёз. Группа состоит из ЧжэХуна (вокал), КюМина (вокал, рэп), ЁнЧжуна (гитара), КванЕна (басс) и ХёСока (барабан).
Это их второй сингл со времен дебюту.
Песня зажигательная, напоминает CN Blue и FT Island, чем полностью отличается от их дебютной песни Dash.
Перевод, тайминг, оформление - amaneshka
ОБЯЗАТЕЛЬНО УСТАНОВИТЕ ШРИФТЫ!!!
Video: MPEG4 Video (H264) 1280x720 [Video]
Audio: AAC 44100Hz stereo 1411Kbps [Audio]
Format : MPEG-4
Format profile : Base Media / Version 2
Codec ID : mp42
File size : 81.1 MiB
Duration : 3mn 37s
Overall bit rate : 3 131 Kbps
Encoded date : UTC 2011-06-14 14:45:03
Tagged date : UTC 2011-06-14 14:45:03
gsst : 0
gstd : 217286
gssd : B4A7DDA02HH1308292334573426
gshh : v2.cache1.c.youtube.com
Video #1
ID : 1
Format : AVC
Format/Info : Advanced Video Codec
Format profile : High@L3.1
Format settings, CABAC : Yes
Format settings, ReFrames : 1 frame
Codec ID : avc1
Codec ID/Info : Advanced Video Coding
Duration : 3mn 37s
Bit rate mode : Variable
Bit rate : 2 974 Kbps
Maximum bit rate : 5 020 Kbps
Width : 1 280 pixels
Height : 720 pixels
Display aspect ratio : 16:9
Frame rate mode : Variable
Frame rate : 23.976 fps
Minimum frame rate : 17.241 fps
Maximum frame rate : 24.390 fps
Resolution : 24 bits
Colorimetry : 4:2:0
Scan type : Progressive
Bits/(Pixel*Frame) : 0.135
Stream size : 77.0 MiB (95%)
Encoded date : UTC 1970-01-01 00:00:00
Tagged date : UTC 2011-06-14 14:45:04
Audio #2
ID : 2
Format : AAC
Format/Info : Advanced Audio Codec
Format version : Version 4
Format profile : LC
Format settings, SBR : No
Codec ID : 40
Duration : 3mn 37s
Bit rate mode : Variable
Bit rate : 152 Kbps
Maximum bit rate : 188 Kbps
Channel(s) : 2 channels
Channel positions : L R
Sampling rate : 44.1 KHz
Resolution : 16 bits
Stream size : 3.94 MiB (5%)
Title : IsoMedia File Produced by Google, 5-11-2011
Encoded date : UTC 2011-06-14 14:45:04
Tagged date : UTC 2011-06-14 14:45:04
Скорость у меня маленькая, но раздаю круглые сутки!

Другие мои переводы:
здесь http://rutracker.org/forum/tracker.php?rid=21037789
и здесь http://rutracker.org/forum/tracker.php?rid=6489857
Цитата
  • Похожие темы
    Ответы
    Просмотры
    Последнее сообщение

Вернуться в VMV и др. ролики

Кто сейчас на конференции

Сейчас эту тему просматривают: нет зарегистрированных пользователей и гости: 1