[MV] Park Wan Kyu - One day of love (The princess man OST)[Корея, 2011, HD][KOR+SUB]

 Статистика раздачи 
Размер: 35.02 МБ   |  Зарегистрирован: 07 июн 2018, 21:07   |   .torrent скачан: 0 раз
Сидеров: 0  [ 0 байт/сек ]     Личеров: 0  [ 0 байт/сек ]  
  
Аватара пользователя
 
Раздал: 2.05 ГБ
Скачал: 15.48 ГБ
Ратио: 0.133
Сообщения: 30323
Стаж: 8 лет 2 месяца 5 дней

[MV] Park Wan Kyu - One day of love (The princess man OST)
Страна: Корея
Год выпуска: 2011
Жанр: история, романтика
Продолжительность: 4:07
Исходник: The Princess Man http://rutracker.org/forum/viewtopic.php?t=3673123
Перевод, тайминг, оформление - amaneshka
Видео - pherx4
ОБЯЗАТЕЛЬНО УСТАНОВИТЕ ШРИФТЫ!!!
Доп. информация:
ОСТ из дорамки "Мужчина принцессы".

Video: MPEG4 Video (H264) 864x480 1 039 Kbps 29.970 fps[Video]
Audio: AAC 44100Hz stereo 129 Kbps[Audio]
Format : Flash Video
File size : 34.8 MiB
Duration : 4mn 7s
Overall bit rate : 1 177 Kbps
Video
Format : AVC
Format/Info : Advanced Video Codec
Format profile : Main@L3.1
Format settings, CABAC : Yes
Format settings, ReFrames : 3 frames
Muxing mode : Container profile=Unknown@3.1
Duration : 4mn 7s
Bit rate : 1 039 Kbps
Width : 854 pixels
Height : 480 pixels
Display aspect ratio : 16:9
Frame rate mode : Variable
Frame rate : 29.970 fps
Resolution : 24 bits
Colorimetry : 4:2:0
Scan type : Progressive
Bits/(Pixel*Frame) : 0.085
Stream size : 30.7 MiB (88%)
Audio
Format : AAC
Format/Info : Advanced Audio Codec
Format version : Version 4
Format profile : LC
Format settings, SBR : No
Duration : 4mn 7s
Bit rate : 129 Kbps
Channel(s) : 2 channels
Channel positions : L R
Sampling rate : 44.1 KHz
Resolution : 16 bits
Stream size : 3.80 MiB (11%)
Скорость у меня маленькая, но раздаю круглые сутки!
Не забывайте говорить Спасибо. Не уходите с раздачи!   
Торрент: Зарегистрирован [07 июн 2018, 21:07] Для скачивания .torrent
необходима регистрация
Или скачать с помощью
MediaGet
Статус:
Проверен
 
.torrent скачан: 0 раз
Хэш: cc11d0936d06c91c9e47cf48563ccca56d65681c
Размер: 35.02 МБ (36 723 439 байт)
   Стать Автором раздачи
   
Цитата
  • Похожие торренты
    Ответы
    Просмотры
    Последнее сообщение

Вернуться в VMV и др. ролики

Кто сейчас на конференции

Сейчас эту тему просматривают: нет зарегистрированных пользователей и гости: 1