[MV] Born To Beat (BTOB) - Irresistible Lips [2012, Корея, K-POP, HDTVRip] [KOR+SUB]

 Статистика раздачи 
Размер: 84.36 МБ   |  Зарегистрирован: 07 июн 2018, 21:07   |   .torrent скачан: 0 раз
Сидеров: 0  [ 0 байт/сек ]     Личеров: 0  [ 0 байт/сек ]  
  
Аватара пользователя
 
Раздал: 2.05 ГБ
Скачал: 15.48 ГБ
Ратио: 0.133
Сообщения: 30323
Стаж: 8 лет 2 месяца 6 дней

Born To Beat (BTOB) - Irresistible Lips
Год выпуска: 2012
Страна: Южная Корея
Жанр: KPop
Продолжительность: 03:57
Описание:
Иногда лишь поцеловав - понимаешь, что любишь.
Доп. информация:
Перевод, тайминг, оформление - amaneshka
ОБЯЗАТЕЛЬНО УСТАНОВИТЕ ШРИФТЫ!!!

Video:
MPEG4 Video (H264) 1280x720 29.97fps 2 820 Kbps[Video]
Audio: AAC 44100Hz stereo 1411Kbps [Audio]
Format : MPEG-4
Format profile : Base Media / Version 2
Codec ID : mp42
File size : 84.2 MiB
Duration : 3mn 57s
Overall bit rate : 2 975 Kbps
Encoded date : UTC 2012-05-21 20:17:12
Tagged date : UTC 2012-05-21 20:17:12
gsst : 0
gstd : 237608
gssd : B4A7DDA64MH1337764540097558

Video #1

ID : 1
Format : AVC
Format/Info : Advanced Video Codec
Format profile : High@L3.1
Format settings, CABAC : Yes
Format settings, ReFrames : 1 frame
Codec ID : avc1
Codec ID/Info : Advanced Video Coding
Duration : 3mn 57s
Bit rate mode : Variable
Bit rate : 2 820 Kbps
Maximum bit rate : 7 800 Kbps
Width : 1 280 pixels
Height : 720 pixels
Display aspect ratio : 16:9
Frame rate mode : Constant
Frame rate : 29.970 fps
Resolution : 24 bits
Colorimetry : 4:2:0
Scan type : Progressive
Bits/(Pixel*Frame) : 0.102
Stream size : 79.9 MiB (95%)
Encoded date : UTC 1970-01-01 00:00:00
Tagged date : UTC 2012-05-21 20:17:12

Audio #2

ID : 2
Format : AAC
Format/Info : Advanced Audio Codec
Format version : Version 4
Format profile : LC
Format settings, SBR : No
Codec ID : 40
Duration : 3mn 57s
Bit rate mode : Variable
Bit rate : 152 Kbps
Maximum bit rate : 185 Kbps
Channel(s) : 2 channels
Channel positions : L R
Sampling rate : 44.1 KHz
Resolution : 16 bits
Stream size : 4.30 MiB (5%)
Title : IsoMedia File Produced by Google, 5-11-2011
Encoded date : UTC 2012-05-21 20:17:12
Tagged date : UTC 2012-05-21 20:17:12
Скорость у меня маленькая, но раздаю круглые сутки!

Другие мои переводы:
здесь http://rutracker.org/forum/tracker.php?rid=21037789
и здесь http://rutracker.org/forum/tracker.php?rid=6489857
Не забывайте говорить Спасибо. Не уходите с раздачи!   
Торрент: Зарегистрирован [07 июн 2018, 21:07] Для скачивания .torrent
необходима регистрация
Или скачать с помощью
MediaGet
Статус:
Проверен
 
.torrent скачан: 0 раз
Хэш: f3c39f0194e3659115d597c3e22d84e4b8d26e01
Размер: 84.36 МБ (88 460 783 байт)
   Стать Автором раздачи
   
Цитата

Вернуться в VMV и др. ролики

Кто сейчас на конференции

Сейчас эту тему просматривают: нет зарегистрированных пользователей и гости: 1