[MV] Born To Beat (BTOB) - Father [Корея, 2012, TVRip][KOR+SUB]

 Статистика раздачи 
Размер: 41.22 МБ   |  Зарегистрирован: 07 июн 2018, 21:06   |   .torrent скачан: 0 раз
Сидеров: 0  [ 0 байт/сек ]     Личеров: 0  [ 0 байт/сек ]  
  
Аватара пользователя
 
Раздал: 2.05 ГБ
Скачал: 15.48 ГБ
Ратио: 0.133
Сообщения: 30323
Стаж: 8 лет 1 месяц 27 дней

Born To Beat (BTOB) - Father

Год выпуска: 2012
Страна: Южная Корея
Жанр: KPop
Продолжительность: 03:42

Описание:
Многие становясь знаменитыми часто забывают о самых близких им людях - о родителях.
О них поется в этой трогательной песне.
Доп. информация:
Перевод, тайминг, оформление - amaneshka
ОБЯЗАТЕЛЬНО УСТАНОВИТЕ ШРИФТЫ!!!
Video: MPEG4 Video (H264) 1280x720 23.98fps 1 386 Kbps[Video]
Audio: AAC 44100Hz stereo 1411Kbps [Audio]
Format : MPEG-4
Format profile : Base Media / Version 2
Codec ID : mp42
File size : 40.9 MiB
Duration : 3mn 42s
Overall bit rate : 1 541 Kbps
Encoded date : UTC 2012-05-02 03:03:17
Tagged date : UTC 2012-05-02 03:03:17
gsst : 0
gstd : 222748
gssd : BADC23E24HH1336292765589102
Video #1
ID : 1
Format : AVC
Format/Info : Advanced Video Codec
Format profile : High@L3.1
Format settings, CABAC : Yes
Format settings, ReFrames : 1 frame
Codec ID : avc1
Codec ID/Info : Advanced Video Coding
Duration : 3mn 42s
Bit rate mode : Variable
Bit rate : 1 386 Kbps
Maximum bit rate : 4 344 Kbps
Width : 1 280 pixels
Height : 720 pixels
Display aspect ratio : 16:9
Frame rate mode : Constant
Frame rate : 23.976 fps
Resolution : 24 bits
Colorimetry : 4:2:0
Scan type : Progressive
Bits/(Pixel*Frame) : 0.063
Stream size : 36.8 MiB (90%)
Encoded date : UTC 1970-01-01 00:00:00
Tagged date : UTC 2012-05-02 03:03:17
Audio #2
ID : 2
Format : AAC
Format/Info : Advanced Audio Codec
Format version : Version 4
Format profile : LC
Format settings, SBR : No
Codec ID : 40
Duration : 3mn 42s
Bit rate mode : Variable
Bit rate : 152 Kbps
Maximum bit rate : 178 Kbps
Channel(s) : 2 channels
Channel positions : L R
Sampling rate : 44.1 KHz
Resolution : 16 bits
Stream size : 4.03 MiB (10%)
Title : IsoMedia File Produced by Google, 5-11-2011
Encoded date : UTC 2012-05-02 03:03:17
Tagged date : UTC 2012-05-02 03:03:17

Скорость у меня маленькая, но раздаю круглые сутки!

Другие мои переводы:
здесь http://rutracker.org/forum/tracker.php?rid=21037789
и здесь http://rutracker.org/forum/tracker.php?rid=6489857
Не забывайте говорить Спасибо. Не уходите с раздачи!   
Торрент: Зарегистрирован [07 июн 2018, 21:06] Для скачивания .torrent
необходима регистрация
Или скачать с помощью
MediaGet
Статус:
Проверен
 
.torrent скачан: 0 раз
Хэш: 8a85287e6feced8f18fa90909a77c6dc0323b5d0
Размер: 41.22 МБ (43 226 440 байт)
   Стать Автором раздачи
   
Цитата

Вернуться в VMV и др. ролики

Кто сейчас на конференции

Сейчас эту тему просматривают: нет зарегистрированных пользователей и гости: 1