Алиса в городе чудес / Alice in Wonder City / Gai Alice De Qi Ji (Wang Li Wen) [15/15] [CHI+SUB] [Тайвань, 2012, мелодрама, TVRip] [RAW]

 Статистика раздачи 
Размер: 18.25 ГБ   |  Зарегистрирован: 07 июн 2018, 19:57   |   .torrent скачан: 2 раз
Сидеров: 1  [ 0 байт/сек ]     Личеров: 0  [ 0 байт/сек ]  
  
Аватара пользователя
 
Раздал: 2.05 ГБ
Скачал: 15.48 ГБ
Ратио: 0.133
Сообщения: 30323
Стаж: 8 лет 5 месяцев 1 день

Алиса в городе чудес
Alice in Wonder City / 給愛麗絲的奇蹟 / Gai Alice De Qi Ji
Год выпуска: 2012
Страна: Тайвань
Жанр: мелодрама
Продолжительность серии: 01:30:00
Продолжительность: 15 эпизодов
Русские субтитры: есть
Оригинальная аудиодорожка: Тайваньский
Режиссёр: Wang Li Wen
В ролях:
Aaron Yan as He Ting Yu
Xiu Jie Kai as Chen Hai Jie
Lara as Lan Die Fei
Yang Gui Mei as Jin Li Sha
Tracy Chou as Alice
Описание:
Хе Тин Юй - серьёзный и талантливый скрипач, занимающий место первой скрипки в Катагалонском симфоническом оркестре. Но молодой музыкант несчастен, страдает бессонницей и обладает очень вспыльчивым характером. Чен Хай Цзе - деревенский парень, мечтающий стать настоящим скрипачом. Судьба сводит этих двух героев, а так же загадочную туристку из Японии по имени Алиса. Какие тайны прячутся на кончике смычка?

Доп. информация:
Русские субтитры от фансаб-группы ФСГ "Bears"
Перевод: Narvskaya
Редакция: Narvskaya
Обновите торрент!!! Добавлена последняя серия !!!


Ссылка на предыдущие и альтернативные раздачи: http://rutracker.org/forum/tracker.php
Сэмпл: http://multi-up.com/769918
Неотключаемые субтитры: Без хардсаба
Качество: TVRip
Формат: AVI
Видео кодек: XviD
Аудио кодек: MP3
Видео: 720x540 (1.33:1), 29.970 fps, XviD build 63 ~1807 kbps avg, 0.16 bit/pixel
Аудио: 44.100 kHz, MPEG Layer 3, 2 ch, ~191.27 kbps avg
General
Complete name :AVI\Ali 1_xvid.avi
Format : AVI
Format/Info : Audio Video Interleave
Format profile : OpenDML
File size : 1.33 GiB
Duration : 1h 35mn
Overall bit rate mode : Variable
Overall bit rate : 2 007 Kbps
Writing application : MEncoder r33883
Writing library : MPlayer
Video
ID : 0
Format : MPEG-4 Visual
Format profile : Simple@L3
Format settings, BVOP : No
Format settings, QPel : No
Format settings, GMC : No warppoints
Format settings, Matrix : Default (H.263)
Codec ID : XVID
Codec ID/Hint : XviD
Duration : 1h 35mn
Bit rate : 1 800 Kbps
Width : 720 pixels
Height : 540 pixels
Display aspect ratio : 4:3
Frame rate : 29.970 fps
Color space : YUV
Chroma subsampling : 4:2:0
Bit depth : 8 bits
Scan type : Progressive
Compression mode : Lossy
Bits/(Pixel*Frame) : 0.154
Stream size : 1.20 GiB (90%)
Writing library : XviD 63
Audio
ID : 1
Format : MPEG Audio
Format version : Version 1
Format profile : Layer 3
Mode : Joint stereo
Mode extension : MS Stereo
Codec ID : 55
Codec ID/Hint : MP3
Duration : 1h 35mn
Bit rate mode : Variable
Bit rate : 192 Kbps
Channel(s) : 2 channels
Sampling rate : 44.1 KHz
Compression mode : Lossy
Stream size : 130 MiB (10%)
Alignment : Aligned on interleaves
Interleave, duration : 26 ms (0.78 video frame)
Interleave, preload duration : 536 ms





Dialogue: 0,0:01:48.62,0:01:49.25,Default,,0,0,0,,Алиса?
Dialogue: 0,0:03:31.67,0:03:37.25,Default,,0,0,0,,{\i1}-= 1 серия =-{\i}
Dialogue: 0,0:03:53.22,0:03:55.11,Default,,0,0,0,,10:30?
Dialogue: 0,0:03:55.84,0:03:57.22,Default,,0,0,0,,Разве я не на 9:30 ставил?
Dialogue: 0,0:03:57.22,0:03:58.28,Default,,0,0,0,,Что за?
Dialogue: 0,0:04:02.49,0:04:04.10,Default,,0,0,0,,Опаздываю, опаздываю...
Dialogue: 0,0:04:12.03,0:04:13.91,Default,,0,0,0,,Алиса...
Dialogue: 0,0:04:20.55,0:04:21.63,Default,,0,0,0,,Простите.
Dialogue: 0,0:04:21.63,0:04:22.59,Default,,0,0,0,,Пропустите.
Dialogue: 0,0:04:23.35,0:04:24.63,Default,,0,0,0,,{\i1}Симфонические оркестр Тиньг Ю Хе{\i}
Dialogue: 0,0:04:30.91,0:04:32.51,Default,,0,0,0,,Простите, можно пройти.
Dialogue: 0,0:04:32.51,0:04:33.60,Default,,0,0,0,,Сестра!
Dialogue: 0,0:04:34.18,0:04:36.12,Default,,0,0,0,,Почему в очереди стоишь?
Dialogue: 0,0:04:36.12,0:04:38.16,Default,,0,0,0,,Подержи-ка.
Dialogue: 0,0:04:38.16,0:04:39.26,Default,,0,0,0,,Пошли.
Dialogue: 0,0:04:40.92,0:04:42.43,Default,,0,0,0,,Что такое?
Dialogue: 0,0:04:42.43,0:04:43.15,Default,,0,0,0,,Что мне делать?
Dialogue: 0,0:04:43.15,0:04:44.55,Default,,0,0,0,,Концертмейстера ещё нет.
Dialogue: 0,0:04:44.55,0:04:45.93,Default,,0,0,0,,А концерт скоро начнётся.
Dialogue: 0,0:04:46.38,0:04:47.30,Default,,0,0,0,,Ты говоришь о
Dialogue: 0,0:04:47.30,0:04:49.33,Default,,0,0,0,,Хе Тиньг Ю, концертмейстере Хе?
Dialogue: 0,0:04:50.74,0:04:51.97,Default,,0,0,0,,Я тебя предупреждаю.
Dialogue: 0,0:04:51.97,0:04:53.58,Default,,0,0,0,,чтобы пришла завтра на интервью.
Dialogue: 0,0:04:53.58,0:04:56.40,Default,,0,0,0,,Ты поможешь мне сегодня, поэтому сможешь увидеть что это.
Dialogue: 0,0:04:56.40,0:04:59.21,Default,,0,0,0,,Наши сотрудники обычно очень заняты.
Dialogue: 0,0:04:59.21,0:05:00.14,Default,,0,0,0,,Будь аккуратнее.
Dialogue: 0,0:05:00.14,0:05:01.59,Default,,0,0,0,,Не веди себя как фанатка.
Dialogue: 0,0:05:02.08,0:05:03.79,Default,,0,0,0,,Хорошо, я поняла!
Dialogue: 0,0:05:24.26,0:05:25.34,Default,,0,0,0,,Прости!
Dialogue: 0,0:05:25.34,0:05:27.61,Default,,0,0,0,,Что ж ты творишь?
Dialogue: 0,0:05:27.61,0:05:28.67,Default,,0,0,0,,Я...
Dialogue: 0,0:05:28.67,0:05:31.17,Default,,0,0,0,,Ладно, не говори ничего. Собирай лучше.
Dialogue: 0,0:05:41.11,0:05:42.35,Default,,0,0,0,,Секретарь Лан, директор ищет вас.
Dialogue: 0,0:05:42.35,0:05:43.43,Default,,0,0,0,,Хорошо.
Dialogue: 0,0:05:45.92,0:05:47.46,Default,,0,0,0,,Не шатайся тут.
Dialogue: 0,0:05:49.62,0:05:50.97,Default,,0,0,0,,Жди меня.
Dialogue: 0,0:06:25.62,0:06:26.18,Default,,0,0,0,,Директор.
Dialogue: 0,0:06:26.18,0:06:27.43,Default,,0,0,0,,Концертмейстера ещё нет.
Dialogue: 0,0:06:27.43,0:06:28.13,Default,,0,0,0,,Я пыталась ему дозвониться,
Dialogue: 0,0:06:28.13,0:06:30.24,Default,,0,0,0,,но он не ответил.
Dialogue: 0,0:06:30.24,0:06:31.60,Default,,0,0,0,,Тогда звони ещё!
Dialogue: 0,0:07:04.71,0:07:06.31,Default,,0,0,0,,Алло?
Dialogue: 0,0:07:06.31,0:07:07.48,Default,,0,0,0,,Я только что перезвонила,
Dialogue: 0,0:07:07.48,0:07:09.60,Default,,0,0,0,,но он опять не ответил.
Dialogue: 0,0:07:09.60,0:07:10.65,Default,,0,0,0,,Ясно.
Dialogue: 0,0:07:22.06,0:07:23.98,Default,,0,0,0,,И что нам делать?
Dialogue: 0,0:07:24.86,0:07:27.28,Default,,0,0,0,,Забудь. Прекращаем репетицию.
Dialogue: 0,0:07:27.28,0:07:29.31,Default,,0,0,0,,Начнём, когда концертмейстер придёт.
Dialogue: 0,0:07:59.89,0:08:01.57,Default,,0,0,0,,Он здесь, он здесь.
Dialogue: 0,0:08:19.76,0:08:21.03,Default,,0,0,0,,Все внимание!
Не забывайте говорить Спасибо. Не уходите с раздачи!   
Торрент: Зарегистрирован [07 июн 2018, 19:57]
Статус:
Проверен
 
.torrent скачан: 2 раз
Хэш: d373c70f1e7f3a8a5703974979305da03183baab
Размер: 18.25 ГБ (19 592 639 553 байт)
   Стать Автором раздачи
   
Цитата
  • Похожие торренты
    Ответы
    Просмотры
    Последнее сообщение

Вернуться в Тайваньские сериалы с субтитрами

Кто сейчас на конференции

Сейчас эту тему просматривают: нет зарегистрированных пользователей и гости: 1