Дежавю / Hui Dao Ai Yi Qian / Deja Vu [22 из 22] [Тайвань, CHI+SUB] [2013, Тайвань, романтика, фэнтези, HDTVRip] [720p]

 Статистика раздачи 
Размер: 11.38 ГБ   |  Зарегистрирован: 07 июн 2018, 19:52   |   .torrent скачан: 0 раз
Сидеров: 5  [ 0 байт/сек ]     Личеров: 1  [ 0 байт/сек ]  
  
Аватара пользователя
 
Раздал: 2.05 ГБ
Скачал: 15.48 ГБ
Ратио: 0.133
Сообщения: 30323
Стаж: 8 лет 4 месяца 27 дней

Дежавю / Hui Dao Ai Yi Qian / Deja Vu


Страна: Тайвань
Год выпуска: 2013
Жанр: романтика, фэнтези
Продолжительность: 22 из 22

Режиссер: Ван Мин Тай

В ролях:
Вэй Мань - Сюй Хай Линь
Яо Юань Хао - Лу Си Вэй
Ван Сы Пин - Сюй Ю Си
Ян Чжэнь - Лу Сян Кай
Гуань Цзинь Цзун - Лу Бай Фэн
Чэнь Ю Фан - Линь Юй Хуа
Фу Лэй - Сюй Чжэнь Цзи
Цянь Дэ Мэнь - Лу Да Ци
Линь Сю Цзюнь - Ван Мэй Хуэй
Чжан Си Энь - Лю Фэй Фэй
Ван Цзя Лян - Чжэн Я Ли
Сюй Тэн Фан - Тони
и другие.

Перевод: Русские субтитры

Описание: Многие думают, что на свете не бывает чудес. Нельзя вернуть безвозвратно утраченное; нет такой силы, которая бы воскресила человека и всё вернула на круги своя. Но может статься, вы получите шанс вернуться в прошлое и сделать так, чтобы любимый остался жить. Пусть даже очень жестокой ценой...©Li_Li

Доп.информация: Присутствуют отключаемые русские субтитры.
Перевод и редакция фансаб-группы "SeouLights"
Переводчик - Lenkyu,
Редактор - Li_Li.


Неотключаемые субтитры: Китайский хардсаб
Качество видео: HDTVRip
Формат: MKV

Видео: MPEG4 Video (H264), 1280x720, 1800 Kbps, 29.97fps
Аудио: Dolby AC3, 48000Hz stereo, 2 channels, 128kbps, Язык Тайваньский
Видео
Идентификатор : 1
Формат : AVC
Формат/Информация : Advanced Video Codec
Профиль формата : Main@L4.0
Параметр CABAC формата : Да
Параметр ReFrames формата : 4 кадра
Идентификатор кодека : V_MPEG4/ISO/AVC
Продолжительность : 1 ч. 12 м.
Битрейт : 1800 Кбит/сек
Ширина : 1280 пикселей
Высота : 720 пикселей
Соотношение сторон : 16:9
Режим частоты кадров : Постоянный
Частота кадров : 29,970 кадров/сек
Цветовое пространство : YUV
Субдискретизация насыщенности : 4:2:0
Битовая глубина : 8 бит
Тип развёртки : Прогрессивная
Бит/(Пиксели*Кадры) : 0.065
Размер потока : 918 Мбайт (91%)
Библиотека кодирования : x264 core 130 r2273 b3065e6
Настройки программы : cabac=1 / ref=1 / deblock=1:0:0 / analyse=0x1:0x111 / me=hex / subme=2 / psy=1 / psy_rd=1.00:0.00 / mixed_ref=0 / me_range=16 / chroma_me=1 / trellis=0 / 8x8dct=0 / cqm=0 / deadzone=21,11 / fast_pskip=1 / chroma_qp_offset=0 / threads=6 / lookahead_threads=2 / sliced_threads=0 / nr=0 / decimate=1 / interlaced=0 / bluray_compat=0 / constrained_intra=0 / bframes=3 / b_pyramid=2 / b_adapt=1 / b_bias=0 / direct=1 / weightb=1 / open_gop=0 / weightp=1 / keyint=300 / keyint_min=30 / scenecut=40 / intra_refresh=0 / rc_lookahead=10 / rc=abr / mbtree=1 / bitrate=1800 / ratetol=1.0 / qcomp=0.60 / qpmin=0 / qpmax=69 / qpstep=4 / vbv_maxrate=20000 / vbv_bufsize=25000 / nal_hrd=none / ip_ratio=1.40 / aq=1:1.00
Язык : English
Default : Да
Forced : Нет
Основные цвета : BT.709
Характеристики трансфера : BT.709
Коэффициенты матрицы : BT.709
Аудио
Идентификатор : 2
Формат : AC-3
Формат/Информация : Audio Coding 3
Расширение режима : CM (complete main)
Параметр Endianness формата : Big
Идентификатор кодека : A_AC3
Продолжительность : 1 ч. 12 м.
Вид битрейта : Постоянный
Битрейт : 128 Кбит/сек
Каналы : 2 канала
Расположение каналов : Front: L R
Частота : 48,0 КГц
Битовая глубина : 16 бит
Метод сжатия : С потерями
Размер потока : 66,7 Мбайт (7%)
Default : Да
Forced : Нет
20
00:05:16,170 --> 00:05:18,900
и дам чёткие указания.
21
00:05:18,900 --> 00:05:21,740
До свидания!
22
00:05:27,680 --> 00:05:29,750
Сколько дней прошло?
23
00:05:29,750 --> 00:05:32,820
Две недели, заместитель директора.
24
00:05:32,820 --> 00:05:34,380
Всего две недели,
25
00:05:34,380 --> 00:05:38,090
а стал уже таким надменным.
26
00:05:38,090 --> 00:05:40,560
Я его дядя!
27
00:05:40,560 --> 00:05:44,230
Как он смеет
так неуважительно ко мне относиться!
28
00:05:44,230 --> 00:05:46,330
Что творится с нынешней молодёжью?
29
00:05:46,330 --> 00:05:50,770
Неужели забыли, что такое уважение?
30
00:05:50,770 --> 00:05:52,470
Заместитель директора...
31
00:05:52,470 --> 00:05:55,170
он всё-таки генеральный директор.
32
00:05:55,170 --> 00:05:58,670
Генеральный директор, на испытательном сроке!
33
00:06:00,280 --> 00:06:02,350
Хай Линь.
34
00:06:02,350 --> 00:06:04,350
Ты отлично справилась!
35
00:06:04,350 --> 00:06:07,050
Была лучше всех.
36
00:06:07,050 --> 00:06:09,220
Я тобой горжусь.
37
00:06:09,220 --> 00:06:12,920
Лучшая ли она, покажут результаты.
38
00:06:12,920 --> 00:06:14,720
Не тебе это решать.
39
00:06:14,720 --> 00:06:18,960
Но, Хай Линь, я тоже считаю,
ты была лучшей.
40
00:06:18,960 --> 00:06:22,630
Вы меня смущаете своими комплиментами.
Внимание! Данные субтитры размещать для скачивания и просмотра онлайн ТОЛЬКО С РАЗРЕШЕНИЯ администрации фансаб-группы "SeouLights"!
Не забывайте говорить Спасибо. Не уходите с раздачи!   
Торрент: Зарегистрирован [07 июн 2018, 19:52]
Статус:
Проверен
 
.torrent скачан: 0 раз
Хэш: 898d52ccee31a506db65422531396e27f3f16077
Размер: 11.38 ГБ (12 216 975 657 байт)
   Стать Автором раздачи
   
Цитата
  • Похожие торренты
    Ответы
    Просмотры
    Последнее сообщение

Вернуться в Тайваньские сериалы с субтитрами

Кто сейчас на конференции

Сейчас эту тему просматривают: нет зарегистрированных пользователей и гости: 1