Из Лос-Анджелеса в Вегас / LA to Vegas [S01] (2017) WEBRip 1080p | BaibaKo

 Статистика раздачи 
Размер: 15.27 ГБ   |  Зарегистрирован: 07 июн 2018, 02:06   |   .torrent скачан: 0 раз
Сидеров: 5  [ 0 байт/сек ]     Личеров: 0  [ 0 байт/сек ]  
  
Аватара пользователя
Главный редактор
Главный редактор
 
Раздал: 79.89 ТБ
Скачал: 3.74 ТБ
Ратио: 21.771
Сообщения: 210685
Стаж: 8 лет 8 месяцев
Откуда: Санкт-Петербург

Название: Из Лос-Анджелеса в Вегас
Оригинальное название: LA to Vegas
Год выхода: 2017
Жанр: комедия
Режиссеры: Стивен Левитан, Линда Мендоса, Джон Ригги

В ролях: Петер Стормаре, Дилан МакДермотт, Амир Талай, Нэйтан Ли Грэхэм, Кимберли Матула, Оливия Маклин, Эдвин Хэбакон и др.

О сериале: Действие сериала разворачивается на борту самолёта, который каждый уикэнд совершает перелёт из Лос-Анджелеса в Лас-Вегас, и вращается вокруг его экипажа и пассажиров.

Производство: США
Продолжительность: ~00:20:00
Перевод: Любительский (многоголосый закадровый) BaibaKo
Субтитры: Отсутствуют


Файл
Формат: MKV
Качество: WEBRip 1080p

Видео: MPEG-4 AVC, ~ 5000 Кбит/с, 1920x1080
Аудио RUS: 48 kHz, AC3, 2 ch, ~384.00 kbps avg
Аудио ENG: 48 kHz, AC3, 2 ch, ~384.00 kbps avg

Релиз группа:



Общее
Уникальный идентификатор : 220620219570813237014067701307862594946 (0xA5F9E8A1EE58C1FE843B6F9EF492B582)
Полное имя : LA.to.Vegas.s01e01.HD1080p.WEBRip.Rus.Eng.BaibaKo.tv.mkv
Формат : Matroska
Версия формата : Version 4 / Version 2
Размер файла : 1,01 Гбайт
Продолжительность : 23 м. 22 с.
Общий поток : 6179 Кбит/сек
Дата кодирования : UTC 2017-12-26 00:24:14
Программа кодирования : mkvmerge v8.5.2 ('Crosses') 64bit
Библиотека кодирования : libebml v1.3.3 + libmatroska v1.4.4

Видео
Идентификатор : 1
Формат : AVC
Формат/Информация : Advanced Video Codec
Профиль формата : High@L4
Настройки формата : CABAC / 4 Ref Frames
Параметр CABAC формата : Да
Параметр RefFrames формата : 4 кадра
Идентификатор кодека : V_MPEG4/ISO/AVC
Продолжительность : 23 м. 22 с.
Битрейт : 5409 Кбит/сек
Ширина : 1920 пикселей
Высота : 1080 пикселей
Соотношение сторон : 16:9
Режим частоты кадров : Постоянный
Частота кадров : 23,976 (23976/1000) кадра/сек
Частота кадров в оригинале : 23,976 (24000/1001) кадра/сек
Цветовое пространство : YUV
Субдискретизация насыщенности : 4:2:0
Битовая глубина : 8 бит
Тип развёртки : Прогрессивная
Бит/(Пиксели*Кадры) : 0.109
Размер потока : 905 Мбайт (88%)
Библиотека кодирования : x264 core 152 r2851 ba24899
Настройки программы : cabac=1 / ref=3 / deblock=1:0:0 / analyse=0x3:0x113 / me=hex / subme=7 / psy=1 / psy_rd=1.00:0.00 / mixed_ref=1 / me_range=16 / chroma_me=1 / trellis=1 / 8x8dct=1 / cqm=0 / deadzone=21,11 / fast_pskip=1 / chroma_qp_offset=-2 / threads=30 / lookahead_threads=5 / sliced_threads=0 / nr=0 / decimate=1 / interlaced=0 / bluray_compat=0 / constrained_intra=0 / bframes=3 / b_pyramid=2 / b_adapt=1 / b_bias=0 / direct=1 / weightb=1 / open_gop=0 / weightp=2 / keyint=240 / keyint_min=23 / scenecut=40 / intra_refresh=0 / rc_lookahead=40 / rc=crf / mbtree=1 / crf=18.0 / qcomp=0.60 / qpmin=0 / qpmax=69 / qpstep=4 / ip_ratio=1.40 / aq=1:1.00
Default : Нет
Forced : Нет

Аудио #1
Идентификатор : 2
Формат : AC-3
Формат/Информация : Audio Coding 3
Идентификатор кодека : A_AC3
Продолжительность : 23 м. 22 с.
Вид битрейта : Постоянный
Битрейт : 384 Кбит/сек
Каналы : 2 канала
Расположение каналов : Front: L R
Частота : 48,0 КГц
Частота кадров : 31,250 кадров/сек (1536 SPF)
Битовая глубина : 16 бит
Метод сжатия : С потерями
Размер потока : 64,2 Мбайт (6%)
Язык : Russian
Default : Да
Forced : Нет

Аудио #2
Идентификатор : 3
Формат : AC-3
Формат/Информация : Audio Coding 3
Идентификатор кодека : A_AC3
Продолжительность : 23 м. 22 с.
Вид битрейта : Постоянный
Битрейт : 384 Кбит/сек
Каналы : 2 канала
Расположение каналов : Front: L R
Частота : 48,0 КГц
Частота кадров : 31,250 кадров/сек (1536 SPF)
Битовая глубина : 16 бит
Метод сжатия : С потерями
Размер потока : 64,2 Мбайт (6%)
Язык : English
Default : Нет
Forced : Нет
Не забывайте говорить Спасибо. Не уходите с раздачи!   
Торрент: Зарегистрирован [07 июн 2018, 02:06]
Статус:
Проверен
 
.torrent скачан: 0 раз
Хэш: 90f2663edfa4e306ca781085c45fea5669fc0f5b
Размер: 15.27 ГБ (16 391 120 914 байт)
   Стать Автором раздачи
   
Цитата

Вернуться в Из Лос-Анджелеса в Вегас / LA to Vegas

Кто сейчас на конференции

Сейчас эту тему просматривают: нет зарегистрированных пользователей и гости: 1