Из Лос-Анджелеса в Вегас / LA to Vegas [S01] (2018) WEB-DLRip 720p | OMSKBIRD

 Статистика раздачи 
Размер: 7.42 ГБ   |  Зарегистрирован: 07 июн 2018, 02:06   |   .torrent скачан: 0 раз
Сидеров: 4  [ 0 байт/сек ]     Личеров: 0  [ 0 байт/сек ]  
  
Аватара пользователя
Главный редактор
Главный редактор
 
Раздал: 78.18 ТБ
Скачал: 3.73 ТБ
Ратио: 21.403
Сообщения: 209757
Стаж: 8 лет 7 месяцев 22 дня
Откуда: Санкт-Петербург

Информация о фильме
Название: Из Лос-Анджелеса в Вегас
Оригинальное название: LA to Vegas
Год выхода: 2018
Жанр: комедия
Режиссер: Лон Зиммет
В ролях: Петер Стормаре, Нэйтан Ли Грэхэм, Оливия Маклин, Дилан МакДермотт, Амир Талай, Кимберли Матула, Эд Викс, Бун Нельсон, Эдвин Хэбакон и др.

О фильме:
В центре сюжета компания неутомимых авантюристов. Последние годы каждого из них преследовала череда неудач, но они решили использовать свой последний шанс вытянуть счастливый билет. На последние сбережения они отправляются в город, где сбываются мечты Лас-Вегас. Каждый из героев планирует разбогатеть и начать новую жизнь. Исполнит ли заветный авиарейс из Лос-Анджелеса в Вегас их желания или неудачники потерпят очередной провал. Не только у пассажиров большие планы на эту поездку.


Страна: США
Продолжительность: ~ 00:22:00 серия
Перевод: Любительский (многоголосый закадровый) | OMSKBIRD

Файл
Кодек: MPEG-4 AVC
Качество: WEB-DLRip 720p
Видео: AVC, 1280x720 (16:9), 23.976 fps, ~ 3000 kbps
Звук: Аудио rus: AC-3, 48 KHz, 2 ch, 192 kbps | OMSKBIRD records

Семпл

Присутствует реклама!



General
Unique ID : 246544342214830868984416028926205354636 (0xB97AB68FA09B13F883DF407857A1E28C)
Complete name : H:Мои ДокументыВидеоРАЗДАЧИЛА ТУ ВЕГАСLA to Vegas S01 WEB-DLRip 720p (OMSKBIRD)LA to Vegas S01E01 WEB-DLRip 720p (OMSKBIRD).mkv
Format : Matroska
Format version : Version 2
File size : 529 MiB
Duration : 23 min 16 s
Overall bit rate : 3 175 kb/s
Encoded date : UTC 2018-01-25 16:17:46
Writing application : mkvmerge v4.0.0 ('The Stars were mine') сборка от Jun 6 2010 16:18:42
Writing library : libebml v1.0.0 + libmatroska v1.0.0

Video
ID : 1
Format : AVC
Format/Info : Advanced Video Codec
Format profile : Baseline@L3.2
Format settings, CABAC : No
Format settings, RefFrames : 3 frames
Format settings, GOP : M=1, N=23
Codec ID : V_MPEG4/ISO/AVC
Duration : 23 min 16 s
Bit rate : 2 920 kb/s
Width : 1 280 pixels
Height : 720 pixels
Display aspect ratio : 16:9
Frame rate mode : Constant
Frame rate : 23.976 (24000/1001) FPS
Standard : NTSC
Color space : YUV
Chroma subsampling : 4:2:0
Bit depth : 8 bits
Scan type : Progressive
Bits/(Pixel*Frame) : 0.132
Stream size : 486 MiB (92%)
Language : English
Default : Yes
Forced : No
Color range : Limited
Color primaries : BT.709
Transfer characteristics : BT.709
Matrix coefficients : BT.709

Audio
ID : 2
Format : AC-3
Format/Info : Audio Coding 3
Format settings, Endianness : Big
Codec ID : A_AC3
Duration : 23 min 16 s
Bit rate mode : Constant
Bit rate : 192 kb/s
Channel(s) : 2 channels
Channel positions : Front: L R
Sampling rate : 48.0 kHz
Frame rate : 31.250 FPS (1536 SPF)
Bit depth : 16 bits
Compression mode : Lossy
Stream size : 32.0 MiB (6%)
Service kind : Complete Main
Default : Yes
Forced : No
Не забывайте говорить Спасибо. Не уходите с раздачи!   
Торрент: Зарегистрирован [07 июн 2018, 02:06]
Статус:
Проверен
 
.torrent скачан: 0 раз
Хэш: bf5deb637f189552faace6466ab070034a60f56c
Размер: 7.42 ГБ (7 966 401 200 байт)
   Стать Автором раздачи
   
Цитата

Вернуться в Из Лос-Анджелеса в Вегас / LA to Vegas

Кто сейчас на конференции

Сейчас эту тему просматривают: нет зарегистрированных пользователей и гости: 1