Из Лос-Анджелеса в Вегас / LA to Vegas [S01] (2018) WEB-DLRip | OMSKBIRD

 Статистика раздачи 
Размер: 4.66 ГБ   |  Зарегистрирован: 07 июн 2018, 02:05   |   .torrent скачан: 0 раз
Сидеров: 4  [ 0 байт/сек ]     Личеров: 0  [ 0 байт/сек ]  
  
Аватара пользователя
Главный редактор
Главный редактор
 
Раздал: 78.18 ТБ
Скачал: 3.73 ТБ
Ратио: 21.403
Сообщения: 209757
Стаж: 8 лет 7 месяцев 22 дня
Откуда: Санкт-Петербург

Информация о фильме
Название: Из Лос-Анджелеса в Вегас
Оригинальное название: LA to Vegas
Год выхода: 2018
Жанр: комедия
Режиссер: Лон Зиммет
В ролях: Петер Стормаре, Нэйтан Ли Грэхэм, Оливия Маклин, Дилан МакДермотт, Амир Талай, Кимберли Матула, Эд Викс, Бун Нельсон, Эдвин Хэбакон и др.

О фильме:
В центре сюжета компания неутомимых авантюристов. Последние годы каждого из них преследовала череда неудач, но они решили использовать свой последний шанс вытянуть счастливый билет. На последние сбережения они отправляются в город, где сбываются мечты Лас-Вегас. Каждый из героев планирует разбогатеть и начать новую жизнь. Исполнит ли заветный авиарейс из Лос-Анджелеса в Вегас их желания или неудачники потерпят очередной провал. Не только у пассажиров большие планы на эту поездку.



Страна: США
Продолжительность: ~ 00:22:00 серия
Перевод: Любительский (многоголосый закадровый) | OMSKBIRD

Файл
Кодек: Xvid
Качество: WEB-DLRip
Видео: AVI, 720x400 (16:9), 23.976 fps, ~ 1800 kbps
Звук: Аудио rus: AC-3, 48 KHz, 2 ch, 192 kbps | OMSKBIRD records

Семпл

Присутствует реклама!



General
Complete name : H:Мои ДокументыВидеоРАЗДАЧИЛА ТУ ВЕГАСLA to Vegas S01 WEB-DLRip (OMSKBIRD)LA to Vegas S01E01 WEB-DLRip (OMSKBIRD).avi
Format : AVI
Format/Info : Audio Video Interleave
File size : 332 MiB
Duration : 23 min 15 s
Overall bit rate : 1 998 kb/s
Writing application : VirtualDubMod 1.5.10.3 | www.virtualdub-fr.org || (build 2550/release)
Writing library : VirtualDubMod build 2550/release

Video
ID : 0
Format : MPEG-4 Visual
Format profile : Advanced Simple@L5
Format settings, BVOP : 1
Format settings, QPel : No
Format settings, GMC : No warppoints
Format settings, Matrix : Default (H.263)
Codec ID : XVID
Codec ID/Hint : XviD
Duration : 23 min 15 s
Bit rate : 1 796 kb/s
Width : 720 pixels
Height : 400 pixels
Display aspect ratio : 16:9
Frame rate : 23.976 (24000/1001) FPS
Color space : YUV
Chroma subsampling : 4:2:0
Bit depth : 8 bits
Scan type : Progressive
Compression mode : Lossy
Bits/(Pixel*Frame) : 0.260
Stream size : 299 MiB (90%)
Writing library : XviD 67

Audio
ID : 1
Format : AC-3
Format/Info : Audio Coding 3
Format settings, Endianness : Big
Codec ID : 2000
Duration : 23 min 15 s
Bit rate mode : Constant
Bit rate : 192 kb/s
Channel(s) : 2 channels
Channel positions : Front: L R
Sampling rate : 48.0 kHz
Frame rate : 31.250 FPS (1536 SPF)
Bit depth : 16 bits
Compression mode : Lossy
Stream size : 31.9 MiB (10%)
Alignment : Split accross interleaves
Interleave, duration : 42 ms (1.00 video frame)
Interleave, preload duratio : 500 ms
Service kind : Complete Main

Не забывайте говорить Спасибо. Не уходите с раздачи!   
Торрент: Зарегистрирован [07 июн 2018, 02:05]
Статус:
Проверен
 
.torrent скачан: 0 раз
Хэш: 858e331c3ff0bc05e7b44ad4921b168e4aa79bac
Размер: 4.66 ГБ (5 007 624 192 байт)
   Стать Автором раздачи
   
Цитата

Вернуться в Из Лос-Анджелеса в Вегас / LA to Vegas

Кто сейчас на конференции

Сейчас эту тему просматривают: нет зарегистрированных пользователей и гости: 1