Форс-мажоры / Костюмы в законе / Suits / Сезон: 1 / Серии: 1-12 (12) (Кевин Брэй, Джон Скотт) [2011, драма, комедия, WEB-DL 1080p] MVO (Первый канал) + Original + Eng, Rus Subs (Notabenoid)

 Статистика раздачи 
Размер: 21 ГБ   |  Зарегистрирован: 16 фев 2013, 16:18   |   .torrent скачан: 1 раз
Сидеров: 37  [ 0 байт/сек ]     Личеров: 28  [ 0 байт/сек ]  
  
Аватара пользователя
Администратор
Администратор
 
Раздал: 24.48 ТБ
Скачал: 388.83 ГБ
Ратио: 145.357
Сообщения: 6394
Стаж: 8 лет 8 месяцев 11 дней
Откуда: Lithuania

Форс-мажоры / Костюмы в законе / Suits


Русское название: Форс-мажоры
Оригинальное название: Suits
Год выхода: 2011
Режиссер: Кевин Брэй, Джон Скотт, Майкл Смит
В ролях: Гэбриел Махт, Меган Маркл, Сара Рафферти, Джина Торрес, Патрик Адамс, Рик Хоффман, Макс Топплин, Дэвид Костабайл, Ванесса Рэй, Ребекка Шал
Страна производства: США
Продолжительность: 43 мин.
Продюсер: Гэвин Барклай, Дэйв Бэртис, Натан Перкинс
Сценарий: Аарон Корш, Рик Мураки, Эрика Липез
Жанр: драма, комедия
Перевод: Профессиональный (многоголосый, закадровый) Первый канал
Оригинальный аудиопоток: английский
Субтитры: русские (Notabenoid), английские


Описание: Убегая после неудачной попытки сбыта наркотиков, юрист-самоучка Майк Росс, выдающий себя за выпускника Гарварда, попадает на собеседование к одному из лучших адвокатов по сделкам Нью-Йорка Харви Спектру. Устав от скучных соискателей, мечтающих 'верой и правдой служить букве закона', Харви рискует и нанимает Майка: у парня врожденный талант и фотографическая память. Так рождается один из самых неоднозначных, но, в то же время, и самых блестящих тандемов законников на Манхэттене.


Рейтинг IMDB:
Рейтинг Kinopoisk:


Качество HD: WEB-DL 1080p
Контейнер: MKV
Формат видео: H.264
Формат аудио: AC3
Видео: 1920x1080 (16:9), 23.976 fps, ~5000 Kbps avg, 0.100 bit/pixel
Аудио: AC3, 48 KHz, 2 ch, 192 Kbps - Первый канал
Аудио 2: AC3, 48 KHz, 6 ch, 384 Kbps - Original



Pilot / Пилот
Errors and Omissions / Ошибки и пропуски
Inside Track / Прямой путь к успеху
Dirty Little Secrets / Маленькие грязные секреты
Bail Out / Выручить из беды
Tricks of the Trade / Маленькие хитрости
Play the Man / Поступить как мужчина
Identity Crisis / Личный кризис
Undefeated / Непобедимый
The Shelf Life / Срок годности
Rules of the Game / Правила игры
Dog Fight / Грызня собак

Код: Выделить всё
Общее
Формат : Matroska
Версия формата : Version 2
Размер файла : 1,69 Гбайт
Продолжительность : 42 м.
Общий поток : 5750 Кбит/сек
Программа кодирования : mkvmerge v5.8.0 ('No Sleep / Pillow') built on Sep 2 2012 15:37:04
Библиотека кодирования : libebml v1.2.3 + libmatroska v1.3.0
Видео
Идентификатор : 1
Формат : AVC
Формат/Информация : Advanced Video Codec
Профиль формата : High@L4.0
Параметр CABAC формата : Да
Параметр ReFrames формата : 4 кадра
Идентификатор кодека : V_MPEG4/ISO/AVC
Продолжительность : 42 м.
Битрейт : 5060 Кбит/сек
Ширина : 1920 пикселей
Высота : 1080 пикселей
Соотношение сторон : 16:9
Режим частоты кадров : Постоянный
Частота кадров : 23,976 кадра/сек
Цветовое пространство : YUV
Субдискретизация насыщенности : 4:2:0
Битовая глубина : 8 бит
Тип развёртки : Прогрессивная
Бит/(Пиксели*Кадры) : 0.102
Размер потока : 1,49 Гбайт (88%)
Язык : English
Default : Да
Forced : Нет
Основные цвета : BT.709
Характеристики трансфера : BT.709
Коэффициенты матрицы : BT.709
Аудио #1
Идентификатор : 2
Формат : AC-3
Формат/Информация : Audio Coding 3
Расширение режима : CM (complete main)
Параметр Endianness формата : Big
Идентификатор кодека : A_AC3
Продолжительность : 42 м.
Вид битрейта : Постоянный
Битрейт : 192 Кбит/сек
Каналы : 2 канала
Расположение каналов : Front: L R
Частота : 48,0 КГц
Битовая глубина : 16 бит
Метод сжатия : С потерями
Размер потока : 57,8 Мбайт (3%)
Заголовок : MVO Первый канал
Язык : Russian
Default : Да
Forced : Нет
Аудио #2
Идентификатор : 3
Формат : AC-3
Формат/Информация : Audio Coding 3
Расширение режима : CM (complete main)
Параметр Endianness формата : Big
Идентификатор кодека : A_AC3
Продолжительность : 42 м.
Вид битрейта : Постоянный
Битрейт : 384 Кбит/сек
Каналы : 6 каналов
Расположение каналов : Front: L C R, Side: L R, LFE
Частота : 48,0 КГц
Битовая глубина : 16 бит
Метод сжатия : С потерями
Размер потока : 116 Мбайт (7%)
Заголовок : Original
Язык : English
Default : Нет
Forced : Нет
Текст #1
Идентификатор : 4
Формат : UTF-8
Идентификатор кодека : S_TEXT/UTF8
Идентификатор кодека/Информация : UTF-8 Plain Text
Заголовок : Notabenoid
Язык : Russian
Default : Нет
Forced : Нет
Текст #2
Идентификатор : 5
Формат : UTF-8
Идентификатор кодека : S_TEXT/UTF8
Идентификатор кодека/Информация : UTF-8 Plain Text
Язык : English
Default : Нет
Forced : Нет
Не забывайте говорить Спасибо. Не уходите с раздачи!   
Торрент: Зарегистрирован [16 фев 2013, 16:18]
Статус:
Проверен
 
.torrent скачан: 1 раз
Хэш: 67c27b5273468032631db1c500fdcb7ac0ab53c4
Размер: 21 ГБ (22 550 126 741 байт)
   Стать Автором раздачи
   
Цитата
  • Похожие торренты
    Ответы
    Просмотры
    Последнее сообщение

Вернуться в Форс-мажоры / Suits

Кто сейчас на конференции

Сейчас эту тему просматривают: нет зарегистрированных пользователей и гости: 1