Теория большого взрыва / The Big Bang Theory [S11] (2017) HDTVRip 720p | Кураж-Бамбей

 Статистика раздачи 
Размер: 16.1 ГБ   |  Зарегистрирован: 24 май 2018, 01:23   |   .torrent скачан: 85 раз
Сидеров: 74  [ 0 байт/сек ]     Личеров: 65  [ 0 байт/сек ]  
  
Аватара пользователя
Главный редактор
Главный редактор
 
Раздал: 83.18 ТБ
Скачал: 3.76 ТБ
Ратио: 22.543
Сообщения: 213816
Стаж: 8 лет 8 месяцев 24 дня
Откуда: Санкт-Петербург

Информация о фильме
Название: Теория большого взрыва
Оригинальное название: The Big Bang Theory
Год выхода: 2017-2018
Жанр: Ситком, комедия

Режиссер: Марк Сендроуски, Питер Чакос, Энтони Джозеф Рич

В ролях: Джонни Галэки, Джим Парсонс, Кейли Куоко, Саймон Хелберг, Кунал Найяр, Майем Биалик, Мелисса Рауш, Кэрол Энн Сьюзи, Кевин Суссман, Арти Манн, Брайан Джордж, Элис Эмтер, Сара Гилберт, Джон Росс Боуи, Уил Уитон, Лори Меткаф, Верни Уотсон-Джонсон, Кристин Барански, Джошуа Малина, Кейси Сэндер, Кэти Леклерк

О фильме:
Два блестящих физика, Леонард и Шелдон, «великие умы», которые понимают, как «работает Вселенная». Но их гениальность ничуть не помогает им общаться с людьми, особенно с женщинами. Всё начинает меняться, когда напротив них поселяется красавица Пенни.
Когда Леонард и Шелдон встречают Пенни, Леонард сразу же начинает интересоваться ею. Он видит в общении с Пенни огромную перспективу, вплоть до любви, однако Шелдон понимает, что мечтам его друга не суждено сбыться.
Стоит также отметить пару странных друзей этих физиков: Воловиц, который любит употреблять фразы на разных языках, включая русский, и Раджеш Кутрапали, теряющий дар речи при виде женщин.



Страна: США
Продолжительность серии: ~ 00:21:00
Перевод: Профессиональный (одноголосый закадровый) | Кураж-Бамбей

Файл
Кодек: x.264
Качество: HDTVRip 720p
Видео: 1280x720, 23.976 fps, MPEG-4 AVC, ~ 3035 kbps
Звук 1: AC-3, 48.0 KHz, 2 ch, 192 Kbps, CBR (Russian)
Звук 2: AC-3, 48.0 KHz, 6 ch, 384 Kbps, CBR (English)
Субтитры: Отсутствуют

Рекламы нет

Общее
Уникальный идентификатор : 231168374247281949508056389919514435026 (0xADE968CF79923B189E72972AC4221DD2)
Полное имя : The.Big.Bang.Theory.S11E01.HDTVRip.720p.KB.mkv
Формат : Matroska
Версия формата : Version 2
Размер файла : 548 Мбайт
Продолжительность : 20 м. 47 с.
Общий поток : 3685 Кбит/сек
Дата кодирования : UTC 2017-09-29 20:00:48
Программа кодирования : mkvmerge v7.8.0 ('River Man') 32bit built on Apr 3 2015 12:11:22
Библиотека кодирования : libebml v1.3.1 + libmatroska v1.4.2
IsTruncated : Yes

Видео
Идентификатор : 1
Формат : AVC
Формат/Информация : Advanced Video Codec
Профиль формата : High@L4.1
Настройки формата : CABAC / 8 Ref Frames
Параметр CABAC формата : Да
Параметр RefFrames формата : 8 кадров
Идентификатор кодека : V_MPEG4/ISO/AVC
Продолжительность : 20 м. 47 с.
Битрейт : 3035 Кбит/сек
Ширина : 1280 пикселей
Высота : 720 пикселей
Соотношение сторон : 16:9
Режим частоты кадров : Постоянный
Частота кадров : 23,976 (24000/1001) кадра/сек
Цветовое пространство : YUV
Субдискретизация насыщенности : 4:2:0
Битовая глубина : 8 бит
Тип развёртки : Прогрессивная
Бит/(Пиксели*Кадры) : 0.137
Размер потока : 451 Мбайт (82%)
Библиотека кодирования : x264 core 152 r2851 ba24899
Настройки программы : cabac=1 / ref=8 / deblock=1:-2:-2 / analyse=0x3:0x113 / me=umh / subme=9 / psy=1 / psy_rd=1.00:0.00 / mixed_ref=1 / me_range=24 / chroma_me=1 / trellis=2 / 8x8dct=1 / cqm=0 / deadzone=21,11 / fast_pskip=0 / chroma_qp_offset=-2 / threads=12 / lookahead_threads=1 / sliced_threads=0 / nr=0 / decimate=1 / interlaced=0 / bluray_compat=0 / constrained_intra=0 / bframes=5 / b_pyramid=2 / b_adapt=1 / b_bias=0 / direct=3 / weightb=1 / open_gop=0 / weightp=2 / keyint=250 / keyint_min=23 / scenecut=40 / intra_refresh=0 / rc_lookahead=50 / rc=crf / mbtree=1 / crf=18.0 / qcomp=0.60 / qpmin=0 / qpmax=69 / qpstep=4 / ip_ratio=1.40 / aq=1:1.00
Язык : English
Default : Нет
Forced : Нет

Аудио #1
Идентификатор : 2
Формат : AC-3
Формат/Информация : Audio Coding 3
Идентификатор кодека : A_AC3
Продолжительность : 20 м. 47 с.
Вид битрейта : Постоянный
Битрейт : 192 Кбит/сек
Каналы : 2 канала
Расположение каналов : Front: L R
Частота : 48,0 КГц
Частота кадров : 31,250 кадров/сек (1536 SPF)
Битовая глубина : 16 бит
Метод сжатия : С потерями
Размер потока : 28,5 Мбайт (5%)
Язык : Russian
Default : Да
Forced : Нет

Аудио #2
Идентификатор : 3
Формат : AC-3
Формат/Информация : Audio Coding 3
Идентификатор кодека : A_AC3
Продолжительность : 20 м. 47 с.
Вид битрейта : Постоянный
Битрейт : 384 Кбит/сек
Каналы : 2 канала
Расположение каналов : Front: L R
Частота : 48,0 КГц
Частота кадров : 31,250 кадров/сек (1536 SPF)
Битовая глубина : 16 бит
Метод сжатия : С потерями
Размер потока : 57,1 Мбайт (10%)
Язык : English
Default : Нет
Forced : Нет


Раздача обновлена 15.05.18
Не забывайте говорить Спасибо. Не уходите с раздачи!   
Торрент: Зарегистрирован [24 май 2018, 01:23]
Статус:
Проверен
 
.torrent скачан: 85 раз
Хэш: ef1062bc458a6fb59b5eb2450f24d18ac0878b30
Размер: 16.1 ГБ (17 292 332 015 байт)
   Стать Автором раздачи
   
Цитата

Вернуться в Теория большого взрыва / The Big Bang Theory

Кто сейчас на конференции

Сейчас эту тему просматривают: нет зарегистрированных пользователей и гости: 1