Трансформеры Прайм: Охотники на чудовищ. / Transformers Prime / Сезон: 3 (3) / Серии: 1-13 из 13 (Дэвид Хартман / David Hartman) [2013, Япония, США, Фантастика, приключения, WEB-DL 1080p] Dub + Original Eng

 Статистика раздачи 
Размер: 11.55 ГБ   |  Зарегистрирован: 02 май 2018, 19:58   |   .torrent скачан: 0 раз
Сидеров: 8  [ 0 байт/сек ]     Личеров: 3  [ 0 байт/сек ]  
  
Аватара пользователя
 
Раздал: 256.39 ГБ
Скачал: 432.89 ГБ
Ратио: 0.672
Сообщения: 213358
Стаж: 8 лет 6 месяцев 5 дней

Трансформеры Прайм: Охотники на чудовищ. / Transformers Prime: Beast Hunters
Страна: Япония, США
Жанр: Фантастика, приключения
Продолжительность серии: ~00:22:00
Год выпуска: 2013
Перевод: Профессиональный (дублированный)
Русские субтитры: нет
Режиссёр: Дэвид Хартман / David Hartman
Описание: Уверенные, что опасность миновала, автоботы, тем не менее, оставляют на Земле небольшую группу защитников под руководством Оптимуса Прайма. Предосторожность оказывается не напрасной — три года спустя Мегатрон объявляется снова и приносит с собой Тёмный Энергон, с помощью которого рассчитывает отомстить за прошлое поражение. Автоботы опять вынуждены взяться за оружие. Они подружились с несколькими земными подростками, и теперь команда роботов и людей сражается, чтобы защитить Землю от десептиконов.
Список серий:
01. Даркмаунт, Невада / Darkmount, NV
02. По одиночке / Scattered
03. Добыча / Prey
04. Штурм / Rebellion
05. Проект «Предакон» / Project Predacon
06. Субординация / Chain of Command
07. Один в поле не воин / Plus one
08. Жажда / Thirst
09. Эволюция / Evolution
10. Минус один / Minus One
11. Убеждение / Persuasion
12. Синтез / Synthesis
13. Омега-Замок / Deadlock
Качество: WEB-DL 1080p
Формат: MKV
Видео: AVC, 1920x1080, 16:9, 23.976 fps, ~5000 kbps
Аудио 1: AC-3, 2 channels, 48 KHz, 192 Kbps | Русский (Карусель)
Аудио 2: AC-3, 6 channels, 48 KHz, 384 Kbps | Английский
Субтитры: Английские
Код: Выделить всё
General
Unique ID                   : 224152925515145638812839404232881544523 (0xA8A2487BAD535B228715AF23C0CD1D4B)
Complete name               : D:\Video\Transformers.Prime.Beast.Hunters.Season.3.1080p\Transformers.Prime.Beast.Hunters.S03E10.Minus.One.mkv
Format                      : Matroska
Format version              : Version 2
File size                   : 919 MiB
Duration                    : 22mn 2s
Overall bit rate            : 5 828 Kbps
Encoded date                : UTC 2018-01-22 06:24:27
Writing application         : mkvmerge v6.5.0 ('Isn't she lovely') built on Oct 20 2013 12:50:05
Writing library             : libebml v1.3.0 + libmatroska v1.4.1
Video
ID                          : 1
Format                      : AVC
Format/Info                 : Advanced Video Codec
Format profile              : High@L4
Format settings, CABAC      : Yes
Format settings, ReFrames   : 4 frames
Codec ID                    : V_MPEG4/ISO/AVC
Duration                    : 22mn 2s
Bit rate                    : 5 136 Kbps
Width                       : 1 920 pixels
Height                      : 1 080 pixels
Display aspect ratio        : 16:9
Frame rate mode             : Constant
Frame rate                  : 23.976 fps
Color space                 : YUV
Chroma subsampling          : 4:2:0
Bit depth                   : 8 bits
Scan type                   : Progressive
Bits/(Pixel*Frame)          : 0.103
Stream size                 : 810 MiB (88%)
Title                       : H.264
Default                     : Yes
Forced                      : No
Color range                 : Limited
Color primaries             : BT.709
Transfer characteristics    : BT.709
Matrix coefficients         : BT.709
Audio #1
ID                          : 2
Format                      : AC-3
Format/Info                 : Audio Coding 3
Mode extension              : CM (complete main)
Format settings, Endianness : Big
Codec ID                    : A_AC3
Duration                    : 22mn 2s
Bit rate mode               : Constant
Bit rate                    : 192 Kbps
Channel(s)                  : 2 channels
Channel positions           : Front: L R
Sampling rate               : 48.0 KHz
Compression mode            : Lossy
Stream size                 : 30.3 MiB (3%)
Language                    : Russian
Default                     : Yes
Forced                      : No
Audio #2
ID                          : 3
Format                      : AC-3
Format/Info                 : Audio Coding 3
Mode extension              : CM (complete main)
Format settings, Endianness : Big
Codec ID                    : A_AC3
Duration                    : 22mn 2s
Bit rate mode               : Constant
Bit rate                    : 384 Kbps
Channel(s)                  : 6 channels
Channel positions           : Front: L C R, Side: L R, LFE
Sampling rate               : 48.0 KHz
Compression mode            : Lossy
Stream size                 : 60.5 MiB (7%)
Title                       : DD5.1
Language                    : English
Default                     : No
Forced                      : No
Text
ID                          : 4
Format                      : UTF-8
Codec ID                    : S_TEXT/UTF8
Codec ID/Info               : UTF-8 Plain Text
Title                       : CC
Language                    : English
Default                     : No
Forced                      : No
Предыдущие и альтернативные раздачи
Не забывайте говорить Спасибо. Не уходите с раздачи!   
Торрент: Зарегистрирован [02 май 2018, 19:58]
Статус:
Проверен
 
.torrent скачан: 0 раз
Хэш: 8e022b1821efb70b8806c58c90164944a91edc78
Размер: 11.55 ГБ (12 400 466 776 байт)
   Стать Автором раздачи
   
Цитата
  • Похожие торренты
    Ответы
    Просмотры
    Последнее сообщение

Вернуться в Трансформеры / Transformers

Кто сейчас на конференции

Сейчас эту тему просматривают: нет зарегистрированных пользователей и гости: 1