Трансформеры: Боты-спасатели / Transformers: Rescue Bots / Сезон: 4 / Серии: 1-26 (из 26) (Фрэнк Мольери / Frank Molieri) [2016, мультфильм, приключения, семейный, DVB-AVC] DUB

 Статистика раздачи 
Размер: 10.32 ГБ   |  Зарегистрирован: 02 май 2018, 19:58   |   .torrent скачан: 14 раз
Сидеров: 23  [ 0 байт/сек ]     Личеров: 5  [ 0 байт/сек ]  
  
Аватара пользователя
 
Раздал: 256.39 ГБ
Скачал: 432.89 ГБ
Ратио: 0.672
Сообщения: 213358
Стаж: 8 лет 6 месяцев 13 дней

Трансформеры: Боты-спасатели
/ Transformers: Rescue Bots
Год выпуска: 2016
Страна: США, Канада
Жанр: мультфильм, приключения, семейный
Перевод: Профессиональный (дублированный) по заказу ВГТРК в 2017г.
Продолжительность: 00:21:00
Русские субтитры: телетекст
Режиссёр: Фрэнк Мольери / Frank Molieri
Описание: Боты-спасатели — это дружная команда автоботов, призванная помогать людям ...
Герои мультсериала — четверо автоботов, которые прибыли на Землю недавно, поэтому не знакомы с людскими правилами. Оптимус Прайм поручил им важную миссию — разузнать всё о людях, подружиться с ними и защищать их от разных земных бед и опасностей.
Чейз, Хитвейв, Блэйдс и Болдер работают на технически оснащенном острове, выдавая себя за обычные транспортные средства. Здесь автоботы объединяются с семьей специалистов быстрого реагирования, среди которых есть шеф полиции, пожарник, пилот вертолета и инженер. Их общая задача — поддерживать безопасность на острове, спасать его жителей во время стихийных бедствий и техногенных катастроф. Выполняя эту миссию, боты-спасатели научатся командной работе и станут настоящими героями.
1 серия. Новый стандарт / New Normal
2 серия. Граундбридж / Bridge Building
3 серия. Прибытие / Arrivals
4 серия. Плюс один / Plus One
5 серия. Назад к виртуальной реальности / Back to Virtual Reality
6 серия. Возвращение невидимки / Vanishing Returns
7 серия. Призрак в машине / Ghost in the Machine
8 серия. Враг моего врага / Enemy of My Enemy
9 серия. Мэр не в праве / Mayor May Not
10 серия. День всех разрядов / All Spark Day
11 серия. Герои на подработке / Part Time Heroes
12 серия. Когда все меняется / The More Things Change..
13 серия. Ничего не меняется / The More Things Stay the Same
14 серия. Бот на суперходу / Hot Rod Bot
15 серия. Король Бернс / King Burns
16 серия. Праздник пиццы ПИ / Pizza Pi Party
17 серия. Незванный гость / Uninvited Guest
18 серия. Лагерь Коди / Camp Cody
19 серия. Однажды в сказке / Once Upon a Time
20 серия. Жажда скорости / The Need for Speed
21 серия. Операция Коди / Cody's 11
22 серия. Схватка с Дэйнджером / A Brush with Danger
23 серия. В бесконечность и обратно / To Infinity...and Back
24 серия. Семейные дела / Family Business
25 серия. Апгрейд Боты / Upgrades
26 серия. Трансформации / Transformations

Доп. информация:

Релиз группы:
Трансляция спутникового канала:

Качество видео: DVB
Формат видео: MPEG-TS
Видео: MPEG4 Video (H264), 720x576@1047x576 (16:9), анаморф, 25 fps, ~1500-2700 kbps
Аудио:
MPEG Audio, 2 сh, 48 kHz, 192 kbps
MPEG Audio, 2 сh, 48 kHz, 256 kbps (серии: 13, 19-20, 23-24)

G:\4 season. Transformers Rescue Bots\s4e01. New Normal.ts
General #1
ID : 1 (0x1)
Complete name : G:\4 season. Transformers Rescue Bots\s4e01. New Normal.ts
Format : MPEG-TS
File size : 460 MiB
Duration : 21mn 10s
Overall bit rate mode : Variable
Overall bit rate : 3 040 Kbps
Video #2508
ID : 2508 (0x9CC)
Menu ID : 508 (0x1FC)
Format : AVC
Format/Info : Advanced Video Codec
Format profile : Main@L3.0
Format settings, CABAC : Yes
Format settings, ReFrames : 3 frames
Format settings, GOP : M=4, N=28
Codec ID : 27
Duration : 21mn 10s
Bit rate : 2 696 Kbps
Width : 720 pixels
Height : 576 pixels
Display aspect ratio : 16:9
Frame rate : 25.000 fps
Standard : Component
Color space : YUV
Chroma subsampling : 4:2:0
Bit depth : 8 bits
Scan type : Interlaced
Scan order : Top Field First
Bits/(Pixel*Frame) : 0.260
Stream size : 408 MiB (89%)
Color primaries : BT.601 PAL
Transfer characteristics : BT.470 System B, BT.470 System G
Matrix coefficients : BT.601
Audio #3508
ID : 3508 (0xDB4)
Menu ID : 508 (0x1FC)
Format : MPEG Audio
Format version : Version 1
Format profile : Layer 2
Codec ID : 3
Duration : 21mn 10s
Bit rate mode : Constant
Bit rate : 192 Kbps
Channel(s) : 2 channels
Sampling rate : 48.0 KHz
Compression mode : Lossy
Delay relative to video : -40ms
Stream size : 29.1 MiB (6%)
Language : English
Text #3509-100
ID : 3509 (0xDB5)-100
Menu ID : 508 (0x1FC)
Format : Teletext
Language : Russian
Menu #1508
ID : 1508 (0x5E4)
Menu ID : 508 (0x1FC)
Duration : 21mn 10s
List : 2508 (0x9CC) (AVC) / 3508 (0xDB4) (MPEG Audio, English) / 3509 (0xDB5) ()
Language : / English




Transformers Opening Titles: Rescue Bots - Music Video (Soundtrack)

http://www.youtube.com/watch?v=kAT3jeYj-fE
♫♫♫
A routine patrol with four Bots in stasis,
Years later awoke in the strangest of places.
Earth was their home now and in addition,
Optimus Prime gave them this mission:
Learn from the humans, serve and protect,
Live in their world, earn their respect.
A family of heroes will be your allies,
To others remain robots in disguise.’
♫♫♫
Rescue Bots, roll to the rescue,
Humans in need, heroes indeed,
Rescue Bots, roll to the rescue,
Rescue Bots.
With Cody to guide them and show them the way,
Rescue Bots will be saving the day.
Rescue Bots, roll to the rescue,
Rescue Bots.
Не забывайте говорить Спасибо. Не уходите с раздачи!   
Торрент: Зарегистрирован [02 май 2018, 19:58]
Статус:
Проверен
 
.torrent скачан: 14 раз
Хэш: 35d671d5e97640aa9baf4a3ac84173fed52f432d
Размер: 10.32 ГБ (11 081 155 972 байт)
   Стать Автором раздачи
   
Цитата
  • Похожие торренты
    Ответы
    Просмотры
    Последнее сообщение

Вернуться в Трансформеры / Transformers

Кто сейчас на конференции

Сейчас эту тему просматривают: нет зарегистрированных пользователей и гости: 1