Трансформеры: Прайм: Охотники на чудовищ / Transformers: Prime: Beast Hunters / Сезон: 3 / Серии: 13 из 13 (Дэвид Хартман / David Hartman) [2013, Фантастика, боевик, приключения, WEB-DLRip] Dub

 Статистика раздачи 
Размер: 4.26 ГБ   |  Зарегистрирован: 02 май 2018, 19:57   |   .torrent скачан: 0 раз
Сидеров: 0  [ 0 байт/сек ]     Личеров: 1  [ 0 байт/сек ]  
  
Аватара пользователя
 
Раздал: 256.39 ГБ
Скачал: 432.89 ГБ
Ратио: 0.672
Сообщения: 213358
Стаж: 8 лет 6 месяцев 9 дней

Трансформеры: Прайм: Охотники на чудовищ / Transformers: Prime: Beast Hunters
Страна: США
Жанр: Фантастика, боевик, приключения
Продолжительность: 13 х ~00:21:05
Год выпуска: 2013
Перевод: Профессиональный (дублированный)
Русские субтитры: нет
Режиссёр: Дэвид Хартман / David Hartman
Роли озвучивали: Александр Коврижных (Optimus Prime, Megatron), Наталья Грачева (Arcee), Даниил Эльдаров (Ratchet, Smokescreen), Диомид Виноградов (Bulkhead, Starscream, Agent William Fowler), Дмитрий Курта и др.
Описание: Долгожданный третий сезон культового анимационного сериала о войнах трансформеров.
Автоботы совместно с людьми начинают операцию по уничтожению укрепления десептиконов, которая оканчивается успехом. Даркмаунт разрушен, а враги вынуждены эвакуироваться. В бою принимает участие и восстановленный Смоукскрином Оптимус, — он снова возглавляет автоботов.
Автоботы выясняют, что десептиконы разрабатывают план возрождения кибертронских драконов, и пытаются помешать им. Враги успевают сохранить достаточно генного материала для создания нового предакона, который, как надеется Шоквейв, сможет охотиться на автоботов. Созданный им предакон по имени Предакинг оказывается разумным трансформером, и он готов сражаться против автоботов.
Список серий:
01. Даркмаунт, штат Невада / Darkmount, NV
02. По одиночке / Scattered
03. Добыча / Prey
04. Штурм / Rebellion
05. Операция «Предакон» / Project Predacon
06. Субординация / Chain of Command
07. Один в поле не воин / Plus one
08. Жажда / Thirst
09. Эволюция / Evolution
10. Минус один / Minus One
11. Убеждение / Persuasion
12. Синтез / Synthesis
13. Омега-Замок / Deadlock
Дополнительная информация:
1. За основу был взята версия с озвучкой от Arasi Project, но которую наложена официальная озвучка от канала "Карусель" (студия "Баритон" по заказу ЗАО "Первый канал. Всемирная сеть")
2. Размер файлов подобран для записи на 1 болванку DVD-5.
Ссылка на предыдущие и альтернативные раздачи: http://rutracker.org/forum/tracker.php?f=1165&nm=Transformers Prime
Семпл: http:// СПАМ
Качество: WEB-DLRip
Формат: AVI
Видео: XviD, 720х400 (16:9), 25,000 fps, avg. 2070 kbps
Аудио: AC3, 48000 Hz, stereo, 192kbps
Субтитры: Отсутствуют
Код: Выделить всё
Общее
Полное имя                               : E:\Transformers\01.avi
Формат                                   : AVI
Формат/Информация                        : Audio Video Interleave
Размер файла                             : 336 Мбайт
Продолжительность                        : 21 м.
Общий поток                              : 2232 Кбит/сек
Библиотека кодирования                   : VirtualDub build 29963/release
Видео
Идентификатор                            : 0
Формат                                   : MPEG-4 Visual
Профиль формата                          : Advanced Simple@L5
Параметр BVOP формата                    : 2
Параметр QPel формата                    : Нет
Параметр GMC формата                     : Без точки перехода
Параметр матрицы формата                 : Default (H.263)
Идентификатор кодека                     : XVID
Идентификатор кодека/Подсказка           : XviD
Продолжительность                        : 21 м.
Битрейт                                  : 2033 Кбит/сек
Ширина                                   : 720 пикселей
Высота                                   : 400 пикселей
Соотношение сторон                       : 16:9
Частота кадров                           : 25,000 кадров/сек
Цветовое пространство                    : YUV
Субдискретизация насыщенности            : 4:2:0
Битовая глубина                          : 8 бит
Тип развёртки                            : Прогрессивная
Метод сжатия                             : С потерями
Бит/(Пиксели*Кадры)                      : 0.282
Размер потока                            : 306 Мбайт (91%)
Библиотека кодирования                   : XviD 1.2.1 (UTC 2008-12-04)
Аудио
Идентификатор                            : 1
Формат                                   : AC-3
Формат/Информация                        : Audio Coding 3
Расширение режима                        : CM (complete main)
Параметр Endianness формата              : Big
Идентификатор кодека                     : 2000
Продолжительность                        : 20 м.
Вид битрейта                             : Постоянный
Битрейт                                  : 192 Кбит/сек
Каналы                                   : 2 канала
Расположение каналов                     : Front: L R
Частота                                  : 48,0 КГц
Битовая глубина                          : 16 бит
Метод сжатия                             : С потерями
Размер потока                            : 28,5 Мбайт (8%)
Выравнивание                             : Соединение по промежуткам
Продолжительность промежутка             : 41  мс. (1,02 видеокадр)
Время предзагрузки промежутка            : 512  мс.
12.01.2014 Исправлены замечания модератора по качеству. Торрент-файл перезалит.
Не забывайте говорить Спасибо. Не уходите с раздачи!   
Торрент: Зарегистрирован [02 май 2018, 19:57]
Статус:
Проверен
 
.torrent скачан: 0 раз
Хэш: 5cc96a71a7125fbba0ffd68e70ac29764f4fe126
Размер: 4.26 ГБ (4 577 103 806 байт)
   Стать Автором раздачи
   
Цитата
  • Похожие торренты
    Ответы
    Просмотры
    Последнее сообщение

Вернуться в Трансформеры / Transformers

Кто сейчас на конференции

Сейчас эту тему просматривают: нет зарегистрированных пользователей и гости: 1