Трансформеры G1/ Transformers G1 Season 1-4 [1984-1986, Боевик, Фантастика, DVDrip] Dub

 Статистика раздачи 
Размер: 16.23 ГБ   |  Зарегистрирован: 02 май 2018, 19:57   |   .torrent скачан: 25 раз
Сидеров: 20  [ 0 байт/сек ]     Личеров: 6  [ 0 байт/сек ]  
  
Аватара пользователя
 
Раздал: 256.39 ГБ
Скачал: 432.89 ГБ
Ратио: 0.672
Сообщения: 213358
Стаж: 8 лет 6 месяцев 7 дней

Трансформеры G1/ Transformers G1
Год выпуска: 1984-1986
Страна: США
Жанр: Боевик, Фантастика
Продолжительность: 22мин/серия
Перевод: Профессиональный (полное дублирование)
Описание:
Долгое время планета Кибертрон служила полем боя в тяжелой войне между двумя враждующими группами роботов-трансформеров.
Миролюбивые Автоботы, ведомые лидером Оптимусом Праймом сражались с Десептиконами, которыми правил жестокий вождь Мегатрон.
Попытки Автоботов восстановить мир на планете не увенчались успехом. Их единственной возможностью было покинуть родную
планету в поисках свободы. Поэтому Автоботы вылетели в космос на корабле Арк, не догадываясь, что их преследует шаттл
Десептиконов. Отряд Мегатрона высадился на Арке. Однако во время боя корабль был поврежден и произошел отказ систем управления,
из-за чего Арк разбился у вулкана Св. Хиллари на планете Земля...


Особая благодарность Hydro420 за субтитры к 2x06 - The Immobilizer
За дорожки спасибо Джелл.
Ремастеринг: Bma2004
Качество: DVDRip
Формат: AVI
Видео кодек: DivX
Аудио кодек: MP3
Видео: 512х384
Аудио: 48 Hz 128 кбт/сек
Добавлена серия The Immobilizer c любительской,одноголосой озвучкой от SPAWN. (2 дорожки - Англ и Рус)
Показаны в России по 6 каналу: 1994-1996 г.
Сезон 1
1. More Than Meets The Eye, part 1
2. More Than Meets The Eye, part 2
3. More Than Meets The Eye, part 3
4. Transport to Oblivion
5. Roll For It
6. Divide and Conquer
7. Fire in the Sky
8. S.O.S. Dinobots
9. Fire on the Mountain
10. War of the Dinobots
11. The Ultimate Doom, part 1: Brainwash
12. The Ultimate Doom, part 2: Search
13. The Ultimate Doom, part 3: Revival
14. Countdown to Extinction
15. A Plague of Insecticons
16. Heavy Metal War
Сезон 2
1. Autobot Spike
2. Changing Gears
3. City of Steel
4. Attack of the Autobots
5. Traitor
6. The Immobilizer
7. The Autobot Run
8. Atlantis, Arise!
9. Day of the Machines
10. Enter the Nightbird
11. A Prime Problem
12. The Core
13. The Insecticon Syndrome
14. Dinobot Island, part 1
15. Dinobot Island, part 2
16. The Master Builders
17. Auto Berserk
18. Microbots
19. Megatron's Master Plan, part 1
20. Megatron's Master Plan, part 2
21. Desertion of the Dinobots, part 1
22. Desertion of the Dinobots, part 2
23. Blaster Blues
24. A Decepticon Raider in King Arthur's Court
25. The Golden Lagoon
26. The God Gambit
27. Make Tracks
28. Child's Play
29. Quest for Survival
30. The Secret of Omega Supreme
31. The Gambler
32. Kremzeek!
33. Sea Change
34. Triple Takeover
35. Prime Target
36. Auto-Bop
37. The Search for Alpha Trion
38. The Girl Who Loved Powerglide
39. Hoist Goes Hollywood
40. The Key to Vector Sigma, part 1
41. The Key to Vector Sigma, part 2
42. Aerial Assault
43. War Dawn
44. Trans-Europe Express
45. Cosmic Rust
46. Starscream's Brigade
47. The Revenge of Bruticus
48. Masquerade
49. B.O.T.
Сезон 3
1. Five Faces of Darkness, part 1
2. Five Faces of Darkness, part 2
3. Five Faces of Darkness, part 3
4. Five Faces of Darkness, part 4
5. Five Faces of Darkness, part 5
6. The Killing Jar
7. Chaos
8. Dark Awakening
9. Forever is a Long Time Coming
10. Starscream's Ghost
11. Thief in the Night
12. Surprise Party
13. Madman's Paradise
14. Nightmare Planet
15. Ghost in the Machine
16. Webworld
17. Carnage in C-Minor
18. The Quintesson Journal
19. The Ultimate Weapon
20. The Big Broadcast of 2006
21. Fight or Flee
22. The Dweller in the Depths
23. Only Human
24. Money is Everything
25. Grimlock's New Brain
26. Call of the Primitives
27. The Face of the Nijika
28. The Burden Hardest to Bear
29. The Return of Optimus Prime, part 1
30. The Return of Optimus Prime, part 2
Сезон 4
The Rebirth
General
Complete name : \G1 DVDrip\1\The Transformers (G1) - 1x01 - More Than Meets The Eye Pt1.avi
Format : AVI
Format/Info : Audio Video Interleave
File size : 170 MiB
Duration : 22mn 53s
Overall bit rate : 1 039 Kbps
Writing library : VirtualDub build 25854/release
Video
ID : 0
Format : MPEG-4 Visual
Format settings, BVOP : 1
Format settings, QPel : No
Format settings, GMC : No warppoints
Format settings, Matrix : Default (H.263)
Muxing mode : Packed bitstream
Codec ID : DX50
Codec ID/Hint : DivX 5
Duration : 22mn 53s
Bit rate : 899 Kbps
Width : 512 pixels
Height : 384 pixels
Display aspect ratio : 4:3
Frame rate : 29.970 fps
Color space : YUV
Chroma subsampling : 4:2:0
Bit depth : 8 bits
Scan type : Progressive
Compression mode : Lossy
Bits/(Pixel*Frame) : 0.153
Stream size : 147 MiB (87%)
Writing library : DivX 5.2.1 Alpha (UTC 2004-09-08)
Audio
ID : 1
Format : MPEG Audio
Format version : Version 1
Format profile : Layer 3
Mode : Joint stereo
Codec ID : 55
Codec ID/Hint : MP3
Duration : 22mn 52s
Bit rate mode : Constant
Bit rate : 128 Kbps
Channel(s) : 2 channels
Sampling rate : 48.0 KHz
Compression mode : Lossy
Stream size : 20.9 MiB (12%)
Alignment : Split accross interleaves
Interleave, duration : 33 ms (1.00 video frame)
Interleave, preload duration : 500 ms
Не забывайте говорить Спасибо. Не уходите с раздачи!   
Торрент: Зарегистрирован [02 май 2018, 19:57]
Статус:
Проверен
 
.torrent скачан: 25 раз
Хэш: 4cd5213b14a4afd66a1a50a59f339f63f520df32
Размер: 16.23 ГБ (17 430 235 096 байт)
   Стать Автором раздачи
   
Цитата
  • Похожие торренты
    Ответы
    Просмотры
    Последнее сообщение

Вернуться в Трансформеры / Transformers

Кто сейчас на конференции

Сейчас эту тему просматривают: нет зарегистрированных пользователей и гости: 1