Трансформеры. Роботы под прикрытием / Transformers: Robots in Disguise / Сезон: 2.5 / Серии: 1-6 из 6 (Скутер Тидвелл / Scooter Tidwell) [2015, США, Фантастика, приключения, WEB-DL 1080p] Dub

 Статистика раздачи 
Размер: 5.12 ГБ   |  Зарегистрирован: 02 май 2018, 19:57   |   .torrent скачан: 0 раз
Сидеров: 23  [ 0 байт/сек ]     Личеров: 8  [ 0 байт/сек ]  
  
Аватара пользователя
 
Раздал: 256.39 ГБ
Скачал: 432.89 ГБ
Ратио: 0.672
Сообщения: 213355
Стаж: 8 лет 6 месяцев 15 дней

Трансформеры. Роботы под прикрытием / Transformers: Robots in Disguise
Страна: США
Жанр: Фантастика, приключения
Продолжительность серии: ~00:21:40
Год выпуска: 2015
Перевод: Профессиональный (дублированный)
Русские субтитры: нет
Режиссёр: Скутер Тидвелл / Scooter Tidwell
Описание: Бамблби вызывают, чтобы спасти Землю от новой группы десептиконов, сбежавших из рухнувшего на планету корабля-тюрьмы. Автобот собирает группу неопытных воинов, включающих в себя бунтующего «плохиша», кадета элитной гвардии, напыщенного динобота и гиперактивного миникона. Вместе отряд пытается поймать новых врагов.
Список серий:
Уроки истории / History Lessons
Высокие баллы Стронгарм / Strongarm's Big Score
Правило претцеля / Pretzel Logic
Очень большие неприятности / Mighty Big Trouble
Безумие миниконов / Mini-Con Madness
Достойный / Worthy
Качество: WEB-DL 1080p
Формат: MKV
Видео: AVC/H.264, 1920х1080, ~5000 Kbps
Аудио: AC3, 2 ch, 192 Kbps - Русский (Карусель)
Аудио 2: AC3, 6 ch, 384 Kbps - Английский
Субтитры: Английские
Код: Выделить всё
General
Unique ID                   : 179581673163776267335366456809286359710 (0x871A2C140C9E106FBA355ECA03C55A9E)
Complete name               : D:\Video\Transformers.Robots.in.Disguise.Season2.5.1080p\Transformers.Robots.in.Disguise.S02.5E05.Mini-Con.Madness.mkv
Format                      : Matroska
Format version              : Version 2
File size                   : 875 MiB
Duration                    : 21mn 40s
Overall bit rate            : 5 640 Kbps
Encoded date                : UTC 2018-01-26 04:29:58
Writing application         : mkvmerge v6.5.0 ('Isn't she lovely') built on Oct 20 2013 12:50:05
Writing library             : libebml v1.3.0 + libmatroska v1.4.1
Video
ID                          : 1
Format                      : AVC
Format/Info                 : Advanced Video Codec
Format profile              : High@L4
Format settings, CABAC      : Yes
Format settings, ReFrames   : 4 frames
Codec ID                    : V_MPEG4/ISO/AVC
Duration                    : 21mn 40s
Bit rate                    : 4 952 Kbps
Width                       : 1 920 pixels
Height                      : 1 080 pixels
Display aspect ratio        : 16:9
Frame rate mode             : Constant
Frame rate                  : 23.976 fps
Color space                 : YUV
Chroma subsampling          : 4:2:0
Bit depth                   : 8 bits
Scan type                   : Progressive
Bits/(Pixel*Frame)          : 0.100
Stream size                 : 768 MiB (88%)
Default                     : Yes
Forced                      : No
Color range                 : Limited
Color primaries             : BT.709
Transfer characteristics    : BT.709
Matrix coefficients         : BT.709
Audio #1
ID                          : 2
Format                      : AC-3
Format/Info                 : Audio Coding 3
Mode extension              : CM (complete main)
Format settings, Endianness : Big
Codec ID                    : A_AC3
Duration                    : 21mn 40s
Bit rate mode               : Constant
Bit rate                    : 192 Kbps
Channel(s)                  : 2 channels
Channel positions           : Front: L R
Sampling rate               : 48.0 KHz
Compression mode            : Lossy
Stream size                 : 29.8 MiB (3%)
Language                    : Russian
Default                     : Yes
Forced                      : No
Audio #2
ID                          : 3
Format                      : AC-3
Format/Info                 : Audio Coding 3
Mode extension              : CM (complete main)
Format settings, Endianness : Big
Codec ID                    : A_AC3
Duration                    : 21mn 40s
Bit rate mode               : Constant
Bit rate                    : 384 Kbps
Channel(s)                  : 6 channels
Channel positions           : Front: L C R, Side: L R, LFE
Sampling rate               : 48.0 KHz
Compression mode            : Lossy
Stream size                 : 59.6 MiB (7%)
Language                    : English
Default                     : No
Forced                      : No
Text
ID                          : 4
Format                      : UTF-8
Codec ID                    : S_TEXT/UTF8
Codec ID/Info               : UTF-8 Plain Text
Language                    : English
Default                     : No
Forced                      : No
Предыдущие и альтернативные раздачи
Не забывайте говорить Спасибо. Не уходите с раздачи!   
Торрент: Зарегистрирован [02 май 2018, 19:57]
Статус:
Проверен
 
.torrent скачан: 0 раз
Хэш: 7388051bb9deab41c05cbcd188a8aa3f664a7127
Размер: 5.12 ГБ (5 502 650 292 байт)
   Стать Автором раздачи
   
Цитата
  • Похожие торренты
    Ответы
    Просмотры
    Последнее сообщение

Вернуться в Трансформеры / Transformers

Кто сейчас на конференции

Сейчас эту тему просматривают: нет зарегистрированных пользователей и гости: 1