Трансформеры / Transformers: Animated / Сезон: 1 / Серии: 1-16 из 16 (Мэтт Янгберг, Иринэо Марамба, Кэлвин Ли / Matt Youngberg, Irineo Maramba, Kalvin Lee) [2007, США, Япония, приключения, WEB-DL 1080p] Dub + Original

 Статистика раздачи 
Размер: 14.29 ГБ   |  Зарегистрирован: 02 май 2018, 19:56   |   .torrent скачан: 0 раз
Сидеров: 8  [ 0 байт/сек ]     Личеров: 4  [ 0 байт/сек ]  
  
Аватара пользователя
 
Раздал: 256.39 ГБ
Скачал: 432.89 ГБ
Ратио: 0.672
Сообщения: 213358
Стаж: 8 лет 6 месяцев 11 дней

Трансформеры / Transformers: Animated
Страна: США, Япония
Жанр: Анимация, Приключения
Продолжительность серии: 00:23:00
Год выпуска: 2007
Перевод: Профессиональный (дублированный)
Русские субтитры: нет
Режиссёр: Мэтт Янгберг, Иринэо Марамба, Кэлвин Ли/Matt Youngberg, Irineo Maramba, Kalvin Lee
Роли озвучивали: Дэвид Кэй, Джефф Беннетт, Бампер Робинсон, Билл Фагербакки, Том Кенни, Кори Бертон, Тара Стронг, Таунсенд Коулмэн, Фил ЛаМарр, Кри Саммер
Роли дублировали: Денис Некрасов, Евгений Вальц, Ольга Зверева
Описание: Злобные Десептиконы появились в Детройте. С помощью Великой Искры Мегатрон может обратить всех роботов Земли в Десептиконов. Но на Землю также прибывают и Оптимус Прайм с Автоботами, они планируют остановить Мегатрона и помешать его коварным планам.
Список серий:
Transform and Roll Out!: Part One
Transform and Roll Out!: Part Two
Transform and Roll Out!: Part Three
Home Is Where the Spark Is
Total Meltdown
Blast from the Past
The Thrill of the Hunt
Nanosec
Along Came a Spider
Sound and Fury
Lost and Found
Survival of the Fittest
Headmaster
Nature Calls
Megatron Rising: Part 1
Megatron Rising: Part 2
Семпл: http://multi-up.com/1179680
Качество: WEB-DL 1080p
Формат: MKV
Видео: AVC, 1920x1080 (16:9), 23.976 fps, ~5000 Kbps
Аудио 1: AC3, 48 kHz, 2 channels, 192 kbps, rus
Аудио 2: AAC, 48 kHz, 2 channels, 160 kbps, eng
Субтитры: отсутствуют
Код: Выделить всё
General
Unique ID                      : 185963698983587671479504935832003431973 (0x8BE74E3EB1EEE66D92B2A0DF016A4E25)
Format                         : Matroska
Format version                 : Version 4 / Version 2
File size                      : 888 MiB
Duration                       : 22 min 34 s
Overall bit rate               : 5 497 kb/s
Encoded date                   : UTC 2017-11-07 09:52:07
Writing application            : mkvmerge v17.0.0 ('Be Ur Friend') 64-bit
Writing library                : libebml v1.3.5 + libmatroska v1.4.8
Video
ID                             : 1
Format                         : AVC
Format/Info                    : Advanced Video Codec
Format profile                 : High@L4
Format settings, CABAC         : Yes
Format settings, ReFrames      : 4 frames
Codec ID                       : V_MPEG4/ISO/AVC
Duration                       : 22 min 34 s
Bit rate                       : 5 146 kb/s
Width                          : 1 920 pixels
Height                         : 1 080 pixels
Display aspect ratio           : 16:9
Frame rate mode                : Constant
Frame rate                     : 23.976 (24000/1001) FPS
Color space                    : YUV
Chroma subsampling             : 4:2:0
Bit depth                      : 8 bits
Scan type                      : Progressive
Bits/(Pixel*Frame)             : 0.104
Stream size                    : 831 MiB (94%)
Language                       : English
Default                        : Yes
Forced                         : No
Color range                    : Limited
Color primaries                : BT.709
Transfer characteristics       : BT.709
Matrix coefficients            : BT.709
Audio #1
ID                             : 2
Format                         : AC-3
Format/Info                    : Audio Coding 3
Mode extension                 : CM (complete main)
Format settings, Endianness    : Big
Codec ID                       : A_AC3
Duration                       : 22 min 34 s
Bit rate mode                  : Constant
Bit rate                       : 192 kb/s
Channel(s)                     : 2 channels
Channel positions              : Front: L R
Sampling rate                  : 48.0 kHz
Frame rate                     : 31.250 FPS (1536 spf)
Bit depth                      : 16 bits
Compression mode               : Lossy
Stream size                    : 31.0 MiB (3%)
Language                       : Russian
Default                        : Yes
Forced                         : No
Audio #2
ID                             : 3
Format                         : AAC
Format/Info                    : Advanced Audio Codec
Format profile                 : LC
Codec ID                       : A_AAC
Duration                       : 22 min 34 s
Bit rate                       : 156 kb/s
Channel(s)                     : 2 channels
Channel positions              : Front: L R
Sampling rate                  : 48.0 kHz
Frame rate                     : 46.875 FPS (1024 spf)
Compression mode               : Lossy
Stream size                    : 25.2 MiB (3%)
Language                       : English
Default                        : No
Forced                         : No
Предыдущие и альтернативные раздачи
Не забывайте говорить Спасибо. Не уходите с раздачи!   
Торрент: Зарегистрирован [02 май 2018, 19:56]
Статус:
Проверен
 
.torrent скачан: 0 раз
Хэш: b893f871811f0904491cd635ef21e354f2ba3c65
Размер: 14.29 ГБ (15 342 063 108 байт)
   Стать Автором раздачи
   
Цитата
  • Похожие торренты
    Ответы
    Просмотры
    Последнее сообщение

Вернуться в Трансформеры / Transformers

Кто сейчас на конференции

Сейчас эту тему просматривают: нет зарегистрированных пользователей и гости: 1