Битвы Зверей: Трансформеры / Beast Wars: Transformers / Сезон: 1-3 / Серии: 1-52 (Стив Сакс / Steve Sacks) [1996-1999, приключения, меха, фантастика, боевик, 4хDVD9]

 Статистика раздачи 
Размер: 29.72 ГБ   |  Зарегистрирован: 02 май 2018, 19:56   |   .torrent скачан: 0 раз
Сидеров: 0  [ 0 байт/сек ]     Личеров: 1  [ 0 байт/сек ]  
  
Аватара пользователя
 
Раздал: 256.39 ГБ
Скачал: 432.89 ГБ
Ратио: 0.672
Сообщения: 213358
Стаж: 8 лет 6 месяцев 12 дней

Битвы Зверей: Трансформеры / Beast Wars: Transformers
Страна: США/Канада
Жанр: приключения, меха, фантастика, боевик
Продолжительность: 00:21:45
Год выпуска: 1996-1999
Перевод: 1 и 2 сезоны: Профессиональный (дублированный) / 3 сезон: Профессиональный (одноголосый)
Русские субтитры: нет
Описание: "Битвы зверей" ("Beast Wars") являются и продолжением и предисторией к первоначальному ряду Трансформеров. Спустя триста лет после Большой Войны между Автоботами и Десептиконами, их потомки Максималы и Предаконы теперь проживают в Кибертроне. Максималы (Потомки Автоботов) правили на Кибертроне и жили в мире с Предаконами (потомки Десептиконов).
Однако, один Предакон, известный как Мегатрон (названный в честь Лидера Десептиконов) крадет Золотой Диск. За ним был послан Оптимус Прайм со своей командой Максималов. После упорного преследования Предаконов, обе команды Трансформеров загадочно приземляются на планете (которая позже оказывается Доисторической Землей).
Заманенные в ловушку на планете, между ними начинается Битва Зверей. Однако, амбиции Мегатрона становятся больше прежнего, и Битвы Зверей скоро превратятся в сражение, которое могло изменить историю Кибертрона и судьбы всей вселенной под угрозой....
Качество: DVD9
Формат: DVD-Video
Видео: MPEG2 Video 720x576 (4:3) 25.00fps 9000kbps
Аудио: Рус: Dolby AC3 48000Hz stereo 192kbps [AC-3]
Субтитры: отсутствуют
1 Сезон:
Диск 1
01 - Войны зверей, Часть 1 (Beast Wars, Part 1)
02 - Войны зверей, Часть 2 (Beast Wars, Part 2)
03 - Сеть (The Web)
04 - Равные возможности (Equal Measures)
05 - Командир (Chain of Command)
06 - Источник силы (Power Surge)
07 - Спасение товарища (Fallen Comrades)
08 - Двойная опасность (Double Jeapordy)
09 - Мышеловка (A Better Mousetrap)
10 - Горилла в бою (Gorilla Warfare)
11 - Зонд (The Probe)
12 - Победа (Victory)
13 - Преступные замыслы (Dark Designs)
Диск 2
14 - Два динобота (Double Dinobot)
15 - Искра (The Spark)
16 - Ловушка, Часть 1 (The Trigger, Part 1)
17 - Ловушка, Часть 2 (The Trigger, Part 2)
18 - Паучьи игры (Spider's Game)
19 - Зов предков (Call of the Wild)
20 - Прогулка вслепую (Dark Voyage)
21 - Захват (Possession)
22 - Дорога в низине (The Low Road)
23 - Закон джунглей (Law of the Jungle)
24 - Перед грозой (Before the Storm)
25 - Чужые голоса, Часть 1 (Other Voices, Part 1)
26 - Чужые голоса, Часть 2 (Other Voices, Part 2)
2 Сезон:
Диск 1
01 - Последствия (Aftermath)
02 - Новые лица, Часть 1 (Coming of the Fuzors, Part 1)
03 - Новые лица, Часть 2 (Coming of the Fuzors, Part 2)
04 - Паутина (Tangled Web)
05 - Хватит быть максималом (Maximal, no more)
06 - Снова гости, Часть 1 (Other Visits, Part 1)
07 - Снова гости, Часть 2 (Other Visits, Part 2)
08 - Плохая искра (Bad Spark)
09 - Кодекс героя (Code of Hero)
10 - Трансмутант (Transmutate)
11 - Повестка дня, Часть 1 (The Agenda, Part 1)
12 - Повестка дня, Часть 2 (The Agenda, Part 2)
13 - Повестка дня, Часть 3 (The Agenda, Part 3)
3 Сезон:
Диск 1
01 - Оптимальная ситуация (Optimal Situation)
02 - Глубинный металл (Deep Metal)
03 - Смена охраны (Changing of the Guard)
04 - На острие ножа (Cutting Edge)
05 - Дикий крик, Часть 1 (Feral Scream ,Part 1)
06 - Дикий крик, Часть 2 (Feral Scream ,Part 2)
07 - Испытательный полигон (Proving Grounds)
08 - Вниз по течению (Go with the Flow)
09 - Бесповоротное решение (Crossing the Rubicon)
10 - Мастер Бластер (Master Blaster)
11 - Ещё победы (Other Victories)
12 - Немезида, Часть 1 (Nemesis, Part 1)
13 - Немезида, Часть 2 (Nemesis, Part 2)
Код: Выделить всё
General
Complete name                    : E:\BEAST WARS\S1_D1_DVD\VIDEO_TS\VTS_02_5.VOB
Format                           : MPEG-PS
File size                        : 1 024 MiB
Duration                         : 16mn 16s
Overall bit rate                 : 8 797 Kbps
Video
ID                               : 224 (0xE0)
Format                           : MPEG Video
Format version                   : Version 2
Format profile                   : Main@Main
Format settings, BVOP            : Yes
Format settings, Matrix          : Default
Duration                         : 16mn 16s
Bit rate mode                    : Variable
Bit rate                         : 8 430 Kbps
Nominal bit rate                 : 9 000 Kbps
Width                            : 720 pixels
Height                           : 576 pixels
Display aspect ratio             : 4:3
Frame rate                       : 25.000 fps
Standard                         : PAL
Color space                      : YUV
Chroma subsampling               : 4:2:0
Bit depth                        : 8 bits
Scan type                        : Interlaced
Scan order                       : Top Field First
Compression mode                 : Lossy
Bits/(Pixel*Frame)               : 0.813
Stream size                      : 981 MiB (96%)
Audio
ID                               : 189 (0xBD)-128 (0x80)
Format                           : AC-3
Format/Info                      : Audio Coding 3
Mode extension                   : CM (complete main)
Muxing mode                      : DVD-Video
Duration                         : 16mn 16s
Bit rate mode                    : Constant
Bit rate                         : 192 Kbps
Channel(s)                       : 2 channels
Channel positions                : Front: L R
Sampling rate                    : 48.0 KHz
Bit depth                        : 16 bits
Compression mode                 : Lossy
Delay relative to video          : -168ms
Stream size                      : 22.3 MiB (2%)


Сэмпл 1го сезона с дубляжом
http:// СПАМ
Сэмпл 3го сезона с AVO озвучкой
http:// СПАМ
Не забывайте говорить Спасибо. Не уходите с раздачи!   
Торрент: Зарегистрирован [02 май 2018, 19:56]
Статус:
Проверен
 
.torrent скачан: 0 раз
Хэш: 86caa86a0d637c9820c00977b6284a3c86c1c29f
Размер: 29.72 ГБ (31 909 357 467 байт)
   Стать Автором раздачи
   
Цитата
  • Похожие торренты
    Ответы
    Просмотры
    Последнее сообщение

Вернуться в Трансформеры / Transformers

Кто сейчас на конференции

Сейчас эту тему просматривают: нет зарегистрированных пользователей и гости: 1