Трансформеры / Transformers: The Headmasters / Сезон: 1 / Серии: 25-28 (35) (Сасаки Кацутоси / Sasaki Katsutoshi) [1987, Боевик, Меха, Фантастика, DVD5 (Custom)] Dub (6 канал)

 Статистика раздачи 
Размер: 4.36 ГБ   |  Зарегистрирован: 02 май 2018, 19:55   |   .torrent скачан: 0 раз
Сидеров: 0  [ 0 байт/сек ]     Личеров: 1  [ 0 байт/сек ]  
  
Аватара пользователя
 
Раздал: 256.39 ГБ
Скачал: 432.89 ГБ
Ратио: 0.672
Сообщения: 188907
Стаж: 7 лет 8 месяцев 13 дней

Трансформеры / Transformers: The Headmasters
Год выпуска: 1987
Страна: Япония
Жанр: Боевик,Меха,Фантастика
Продолжительность: 22мин/серия
Перевод: Профессиональный (полное дублирование) (6 канал)
Список серий:
25)«Битва на ледяной горе / The Emperor of Destruction Vanishes on an Iceberg»
26)«Борьба за выживание / I Risk My Life for Earth»
27)«Загадочные воины (Часть 1) / Miraculous Warriors, Targetmasters (Part 1)»
28)«Загадочные воины (Часть 2) / Miraculous Warriors, Targetmasters (Part 2)»
Описание: 2011 году после долгого своего отсутствия силы десептиконов возвращаются на кибертрон чтобы захватить Сигма-компьютер, который в данный момент находится в стадии перенастройки, и очень уязвим. В бой вступают новые воины - Хром и его команда, а так же огромный космический корабль - Крепыш Максимус, который давным давно (ошибка сценаристов - 4млн лет назад.. тогда людей на Кибертроне быть малость... не могло!) во времена веиких сражений забрал людей с Кибертрона и улетел в космос в поисках нового места для жизни. На планете около звезды Мастер они создали свою культуру и науку, там же, в результате длительных исследований была изобретена технология HeadMasters - робот превращался в голову трансформера. Часть из этих новых трансформеров стали предателями, и были изгнаны с родной планеты. Но они продолжали набеги на другие
планеты, и в конце концов присоединились к десептиконам. Крепыш Максимус и его друзья решили, что должны избавить мир от этих чудовищ, и поэтому присоединились к автоботам.
За дорожки спасибо Джелл.
Ремастеринг: Bma2004
Качество: DVD5
Формат: DVD Video
Видео: MPEG2 Video 720x480 (4/3) 29.97fps 9800Kbps
Аудио: RU - Dolby AC3 48000Hz stereo 384Kbps.
Субтитры: китайские (отключаемые)
Ссылки на альтернативные раздачи
General
Complete name : E:\Headmasters DVD Vol.7\VIDEO_TS\VTS_01_2.VOB
Format : MPEG-PS
File size : 1 024 MiB
Duration : 19mn 23s
Overall bit rate mode : Variable
Overall bit rate : 7 381 Kbps
Video
ID : 224 (0xE0)
Format : MPEG Video
Format version : Version 2
Format profile : Main@Main
Format settings, BVOP : Yes
Format settings, Matrix : Custom
Format settings, GOP : M=3, N=15
Format settings, picture struc : Frame
Duration : 19mn 23s
Bit rate mode : Variable
Bit rate : 6 851 Kbps
Maximum bit rate : 9 800 Kbps
Width : 720 pixels
Height : 480 pixels
Display aspect ratio : 4:3
Frame rate : 29.970 fps
Standard : NTSC
Color space : YUV
Chroma subsampling : 4:2:0
Bit depth : 8 bits
Scan type : Interlaced
Scan order : Top Field First
Compression mode : Lossy
Bits/(Pixel*Frame) : 0.661
Time code of first frame : 01:01:40:13
Time code source : Group of pictures header
GOP, Open/Closed : Open
Stream size : 950 MiB (93%)
Audio
ID : 189 (0xBD)-128 (0x80)
Format : AC-3
Format/Info : Audio Coding 3
Mode extension : CM (complete main)
Format settings, Endianness : Big
Muxing mode : DVD-Video
Duration : 19mn 23s
Bit rate mode : Constant
Bit rate : 384 Kbps
Channel(s) : 2 channels
Channel positions : Front: L R
Sampling rate : 48.0 KHz
Compression mode : Lossy
Delay relative to video : -408ms
Stream size : 53.3 MiB (5%)
Text #1
ID : 189 (0xBD)-32 (0x20)
Format : RLE
Format/Info : Run-length encoding
Muxing mode : DVD-Video
Text #2
ID : 189 (0xBD)-33 (0x21)
Format : RLE
Format/Info : Run-length encoding
Muxing mode : DVD-Video
Menu

Сылки на остальные диски:
DVD №1 http://rutracker.org/forum/viewtopic.php?t=324431
DVD №2 http://rutracker.org/forum/viewtopic.php?t=328301
DVD №3 http://rutracker.org/forum/viewtopic.php?t=330817
DVD №4 http://rutracker.org/forum/viewtopic.php?t=5414696
DVD №5 http://rutracker.org/forum/viewtopic.php?t=5415418
DVD №6 http://rutracker.org/forum/viewtopic.php?t=5415420
DVD №7 http://rutracker.org/forum/viewtopic.php?t=5415421
DVD №8 http://rutracker.org/forum/viewtopic.php?t=5415422
DVD №9 http://rutracker.org/forum/viewtopic.php?t=3437368
Не забывайте говорить Спасибо. Не уходите с раздачи!   
Торрент: Зарегистрирован [02 май 2018, 19:55] Для скачивания .torrent
необходима регистрация
Или скачать с помощью
MediaGet
Статус:
Проверен
 
.torrent скачан: 0 раз
Хэш: 260e75d8ad84dc85de52643ef453bdcd8e9ca1bf
Размер: 4.36 ГБ (4 683 495 424 байт)
   Стать Автором раздачи
   
Цитата
  • Похожие торренты
    Ответы
    Просмотры
    Последнее сообщение

Вернуться в Трансформеры / Transformers

Кто сейчас на конференции

Сейчас эту тему просматривают: нет зарегистрированных пользователей и гости: 1