Трансформеры / Transformers: The Headmasters / Сезон: 1 / Серии: 21-24 (35) (Сасаки Кацутоси / Sasaki Katsutoshi) [1987, Боевик, Меха, Фантастика, DVD5 (Custom)] Dub (6 канал)

 Статистика раздачи 
Размер: 4.33 ГБ   |  Зарегистрирован: 02 май 2018, 19:55   |   .torrent скачан: 1 раз
Сидеров: 0  [ 0 байт/сек ]     Личеров: 1  [ 0 байт/сек ]  
  
Аватара пользователя
 
Раздал: 256.39 ГБ
Скачал: 432.89 ГБ
Ратио: 0.672
Сообщения: 213358
Стаж: 8 лет 6 месяцев 7 дней

Трансформеры / Transformers: The Headmasters
Год выпуска: 1987
Страна: Япония
Жанр: Боевик, Меха, Фантастика
Продолжительность: 22мин/серия
Перевод: Профессиональный (полное дублирование) (6 канал)
Список серий:
21)«Уязвимое место Скорпонога / Find MegaZarak's Weak Point!»
22)«Дружба четырёх трансформеров / Head Formation of Friendship»
23)«Загадка пиратского корабля / Mystery of the Space Pirate Ship»
24)«Смерть Магнуса / Ultra Magnus Dies!»
Описание: 2011 году после долгого своего отсутствия силы десептиконов возвращаются на кибертрон чтобы захватить Сигма-компьютер, который в данный момент находится в стадии перенастройки, и очень уязвим. В бой вступают новые воины - Хром и его команда, а так же огромный космический корабль - Крепыш Максимус, который давным давно (ошибка сценаристов - 4млн лет назад.. тогда людей на Кибертроне быть малость... не могло!) во времена веиких сражений забрал людей с Кибертрона и улетел в космос в поисках нового места для жизни. На планете около звезды Мастер они создали свою культуру и науку, там же, в результате длительных исследований была изобретена технология HeadMasters - робот превращался в голову трансформера. Часть из этих новых трансформеров стали предателями, и были изгнаны с родной планеты. Но они продолжали набеги на другие
планеты, и в конце концов присоединились к десептиконам. Крепыш Максимус и его друзья решили, что должны избавить мир от этих чудовищ, и поэтому присоединились к автоботам.
За дорожки спасибо Джелл.
Ремастеринг: Bma2004
Качество: DVD5
Формат: DVD Video
Видео: MPEG2 Video 720x480 (4/3) 29.97fps 9800Kbps
Аудио: RU - Dolby AC3 48000Hz stereo 448Kbps.
Субтитры: китайские (отключаемые)
Ссылки на альтернативные раздачи
General
Complete name : E:\Headmasters DVD Vol.6\VIDEO_TS\VTS_01_5.VOB
Format : MPEG-PS
File size : 318 MiB
Duration : 7mn 33s
Overall bit rate mode : Variable
Overall bit rate : 5 891 Kbps
Video
ID : 224 (0xE0)
Format : MPEG Video
Format version : Version 2
Format profile : Main@Main
Format settings, BVOP : Yes
Format settings, Matrix : Custom
Format settings, GOP : M=3, N=15
Format settings, picture struc : Frame
Duration : 7mn 33s
Bit rate mode : Variable
Bit rate : 5 326 Kbps
Maximum bit rate : 9 800 Kbps
Width : 720 pixels
Height : 480 pixels
Display aspect ratio : 4:3
Frame rate : 29.970 fps
Standard : NTSC
Color space : YUV
Chroma subsampling : 4:2:0
Bit depth : 8 bits
Scan type : Interlaced
Scan order : Top Field First
Compression mode : Lossy
Bits/(Pixel*Frame) : 0.514
Time code of first frame : 02:01:30:01
Time code source : Group of pictures header
GOP, Open/Closed : Open
Stream size : 288 MiB (90%)
Audio
ID : 189 (0xBD)-128 (0x80)
Format : AC-3
Format/Info : Audio Coding 3
Mode extension : CM (complete main)
Format settings, Endianness : Big
Muxing mode : DVD-Video
Duration : 7mn 33s
Bit rate mode : Constant
Bit rate : 448 Kbps
Channel(s) : 2 channels
Channel positions : Front: L R
Sampling rate : 48.0 KHz
Compression mode : Lossy
Delay relative to video : -144ms
Stream size : 24.2 MiB (8%)
Text #1
ID : 189 (0xBD)-32 (0x20)
Format : RLE
Format/Info : Run-length encoding
Muxing mode : DVD-Video
Delay relative to video : -100ms
Text #2
ID : 189 (0xBD)-33 (0x21)
Format : RLE
Format/Info : Run-length encoding
Muxing mode : DVD-Video
Delay relative to video : -100ms
Menu

Сылки на остальные диски:
DVD №1 http://rutracker.org/forum/viewtopic.php?t=324431
DVD №2 http://rutracker.org/forum/viewtopic.php?t=328301
DVD №3 http://rutracker.org/forum/viewtopic.php?t=330817
DVD №4 http://rutracker.org/forum/viewtopic.php?t=5414696
DVD №5 http://rutracker.org/forum/viewtopic.php?t=5415418
DVD №6 http://rutracker.org/forum/viewtopic.php?t=5415420
DVD №7 http://rutracker.org/forum/viewtopic.php?t=5415421
DVD №8 http://rutracker.org/forum/viewtopic.php?t=5415422
DVD №9 http://rutracker.org/forum/viewtopic.php?t=3437368
Не забывайте говорить Спасибо. Не уходите с раздачи!   
Торрент: Зарегистрирован [02 май 2018, 19:55]
Статус:
Проверен
 
.torrent скачан: 1 раз
Хэш: 42be5fbcddc5f7e19afe81f7f8b680bee4ba8f0b
Размер: 4.33 ГБ (4 653 228 032 байт)
   Стать Автором раздачи
   
Цитата
  • Похожие торренты
    Ответы
    Просмотры
    Последнее сообщение

Вернуться в Трансформеры / Transformers

Кто сейчас на конференции

Сейчас эту тему просматривают: нет зарегистрированных пользователей и гости: 1