Трансформеры: Боты-спасатели / Transformers: Rescue Bots / Сезон: 3 / Серии: 1-26 (26) (Фрэнк Мольери / Frank Molieri) [2014, мультфильм, боевик, приключения, семейный, DVB-AVC] DUB

 Статистика раздачи 
Размер: 10.03 ГБ   |  Зарегистрирован: 02 май 2018, 19:54   |   .torrent скачан: 3 раз
Сидеров: 7  [ 0 байт/сек ]     Личеров: 0  [ 0 байт/сек ]  
  
Аватара пользователя
 
Раздал: 256.39 ГБ
Скачал: 432.89 ГБ
Ратио: 0.672
Сообщения: 213358
Стаж: 8 лет 6 месяцев 5 дней

Трансформеры: Боты-спасатели
/ Transformers: Rescue Bots
3 Сезон

Год выпуска: 2014
Страна: США, Канада
Жанр: мультфильм, боевик, приключения, семейный
Перевод: Профессиональный (дублированный) по заказу ВГТРК в 2016г.
Продолжительность: 00:21:00
Русские субтитры: телетекст
Режиссёр: Фрэнк Мольери / Frank Molieri
Описание: Боты-спасатели — это дружная команда автоботов, призванная помогать людям ...
Герои мультсериала — четверо автоботов, которые прибыли на Землю недавно, поэтому не знакомы с людскими правилами. Оптимус Прайм поручил им важную миссию — разузнать всё о людях, подружиться с ними и защищать их от разных земных бед и опасностей.
Чейз, Хитвейв, Блэйдс и Болдер работают на технически оснащенном острове, выдавая себя за обычные транспортные средства. Здесь автоботы объединяются с семьей специалистов быстрого реагирования, среди которых есть шеф полиции, пожарник, пилот вертолета и инженер. Их общая задача — поддерживать безопасность на острове, спасать его жителей во время стихийных бедствий и техногенных катастроф. Выполняя эту миссию, боты-спасатели научатся командной работе и станут настоящими героями.
1 серия. Земля до начала времен Оптимуса Прайма / Land Before Prime
2 серия. Большая охота / Big Game
3 серия. Слишком много Кейдов / Too Many Kades
4 серия. Корабль-призрак / Phantom of the Sea
5 серия. Незаконченная миссия / Unfinished Business
6 серия. Под куполом / No Place Like Dome
7 серия. Муравьи в системе / Bugs in the System
8 серия. Эффект замены / Switcheroo
9 серия. Путешествие к центру человека / Bot-Tastic Voyage
10 серия. Квори / Quarry's Quarry
11 серия. Смотрите кого МЫ нашли! / Did You See What I Thaw
12 серия. Атака Годзиллы / The Attack of Humungado
13 серия. Все боты от мала до велика, Воры среди нас / All Bots Great and Small
14 серия. Снова и снова / Time After Time
15 серия. Привет пиратам / Pirates Ahoy
16 серия. Справиться с водой / Turning the Tide
17 серия. Последний из рока Морокко / The Last of Morocco
18 серия. Свежие силы / The New Recruits
19 серия. Академия ботов спасателей / Rescue Bots Academy
20 серия. Новый герой / A New Hero
21 серия. Четырехлапый герой / Four-Legged Hero
22 серия. Вымирающий вид / Endangered Species
23 серия. Невидимка / More than Meets the Eye
24 серия. Я слышал пенье роботов / I Have Heard the Robots Singing
25 серия. Связь времен / Now and Then
26 серия. Сегодня и навсегда / Today and Forever

Доп. информация:

Релиз группы:
Трансляция спутникового канала:

Качество видео: DVB
Формат видео: MPEG-TS
Видео: MPEG4 Video (H264), 720x576@785x576 (4:3), анаморф, 25 fps, ~2700 kbps
Аудио: MPEG Audio, 2 сh, 48 kHz, 192 kbps

General
ID : 1 (0x1)
Complete name : D:\3 season. Transformers Rescue Bots\s3e05. Unfinished Business.ts
Format : MPEG-TS
File size : 452 MiB
Duration : 20mn 48s
Overall bit rate mode : Variable
Overall bit rate : 3 036 Kbps
Video
ID : 1081 (0x439)
Menu ID : 1080 (0x438)
Format : AVC
Format/Info : Advanced Video Codec
Format profile : Main@L3
Format settings, CABAC : Yes
Format settings, ReFrames : 3 frames
Format settings, GOP : M=4, N=28
Codec ID : 27
Duration : 20mn 48s
Bit rate : 2 692 Kbps
Width : 720 pixels
Height : 576 pixels
Display aspect ratio : 4:3
Frame rate : 25.000 fps
Standard : Component
Color space : YUV
Chroma subsampling : 4:2:0
Bit depth : 8 bits
Scan type : Interlaced
Scan type, store method : Separated fields
Scan order : Top Field First
Bits/(Pixel*Frame) : 0.260
Stream size : 401 MiB (89%)
Color range : Limited
Color primaries : BT.601 PAL
Transfer characteristics : BT.470 System B, BT.470 System G
Matrix coefficients : BT.601
Audio
ID : 1082 (0x43A)
Menu ID : 1080 (0x438)
Format : MPEG Audio
Format version : Version 1
Format profile : Layer 2
Codec ID : 3
Duration : 20mn 48s
Bit rate mode : Constant
Bit rate : 192 Kbps
Channel(s) : 2 channels
Sampling rate : 48.0 KHz
Compression mode : Lossy
Stream size : 28.6 MiB (6%)
Language : English
Text
ID : 1083 (0x43B)-100
Menu ID : 1080 (0x438)
Format : Teletext
Language : Russian

Чтобы начать докачку новой серии, пользователям необходимо сделать следующее:
(1)остановить скачивание,
(2) удалить старый торрент у себя из клиента (старые серии удалять не надо),
(3) скачать новый торрент и запустить его у себя в клиенте вместо старого, при этом указать клиенту путь в старую папку куда и должно происходить скачивание новых серий.
Ваш клиент при этом должен произвести хеширование (проверку) старой папки (если не производит сам - помогите ему сделать это), и будет докачивать только те серии которых у вас ещё нет. Старые серии при этом не удаляются, а продолжают раздаваться!
Eсли вы уже удалили старые серии, то предотвратить повторную закачку старых серий можно, отжав галочку в соответсвующих местах при запуске нового торрента. По возможности, желательно не удалять старые серии как можно дольше чтобы релизёр не столько продолжал раздавать старые серии, а смог сконцентрироваться на новых.

Transformers Opening Titles: Rescue Bots - Music Video (Soundtrack)

http://www.youtube.com/watch?v=kAT3jeYj-fE
♫♫♫
A routine patrol with four Bots in stasis,
Years later awoke in the strangest of places.
Earth was their home now and in addition,
Optimus Prime gave them this mission:
Learn from the humans, serve and protect,
Live in their world, earn their respect.
A family of heroes will be your allies,
To others remain robots in disguise.’
♫♫♫
Rescue Bots, roll to the rescue,
Humans in need, heroes indeed,
Rescue Bots, roll to the rescue,
Rescue Bots.
With Cody to guide them and show them the way,
Rescue Bots will be saving the day.
Rescue Bots, roll to the rescue,
Rescue Bots.
Добавлена 1-2 серия.

PS. перекачайте торрент-файл !
Не забывайте говорить Спасибо. Не уходите с раздачи!   
Торрент: Зарегистрирован [02 май 2018, 19:54]
Статус:
Проверен
 
.torrent скачан: 3 раз
Хэш: 1ded6a46b686a71cf66ba5125f88d4e929c56480
Размер: 10.03 ГБ (10 769 917 460 байт)
   Стать Автором раздачи
   
Цитата
  • Похожие торренты
    Ответы
    Просмотры
    Последнее сообщение

Вернуться в Трансформеры / Transformers

Кто сейчас на конференции

Сейчас эту тему просматривают: нет зарегистрированных пользователей и гости: 1