Трансформеры Прайм / Transformers Prime / Сезон: 2 / Серии: 1-26 из 26 (Дэвид Хартман / David Hartman) [2011, Фантастика, Приключения, BDRip, 720p] Dub

 Статистика раздачи 
Размер: 23.72 ГБ   |  Зарегистрирован: 02 май 2018, 19:53   |   .torrent скачан: 0 раз
Сидеров: 9  [ 0 байт/сек ]     Личеров: 4  [ 0 байт/сек ]  
  
Аватара пользователя
 
Раздал: 256.39 ГБ
Скачал: 432.89 ГБ
Ратио: 0.672
Сообщения: 213358
Стаж: 8 лет 6 месяцев 7 дней

Трансформеры Прайм / Transformers Prime
Страна: США-Япония
Жанр: Фантастика, Приключения
Продолжительность: 00:22:00
Год выпуска: 2011
Перевод: Профессиональный (дублированный)
Русские субтитры: нет
Режиссёр: Дэвид Хартман / David Hartman
Описание: Действие нового сериала "Transformers: Prime" происходит в "настроенной" ("Alightned") вселенной трансформеров, в которую также входят рисованый сериал "Rescue Bots"(про команду гражданских автоботов, прибывших на сигнал Прайма), две игры - "War for Cybertron" и "Fall of Cybertron"(еще не вышла), пара книг, и комиксы.
Игры можно условно считать предисторией даного сериала, хотя уже и наметились значительные расхождения. В них Мегатрон, во время гражданской войны, узнает о существовании "темного" энергона - синтетического топлива, опасного для большинства механических форм жизни, но при умелом обращении способного придать трансформеру невероятные способности (что - то вроде криптонита из комиксов DC). Используя новое оружие Мегатрон берет штурмом мастерские законного правителя Зеты Прайма, убивает его, а затем проникает в самое ядро Кибертрона и заражает его темным энергоном.
Вектор Сигма (центральный процессор Кибертрона) назначает Оптимуса Прайма новым предводителем автоботов, объявляет о переходе планеты в спящий режим для восстановления и приказывает начинать полную эвакуацию. Прайм отбывает с планеты последним, на корабле "Ковчег".
Сериал начинается с того, что Мегатрон, после многолетнего отсутствия, возвращается на свой флагман, находящийся на земной орбите (на земле были обнаружены залежи нормального энергона), с найденым им образцом необычного черного энергона, называемого "Кровь Юникрона", способным оживлять мертвых трансформеров.
Эпизод 01: Orion Pax: Part 1
Эпизод 02: Orion Pax: Part 2
Эпизод 03: Orion Pax: Part 3
Эпизод 04: Operation Bumblebee: Part 1
Эпизод 05: Operation Bumblebee: Part 2
Эпизод 06: Loose Cannons
Эпизод 07: Crossfire
Эпизод 08: Nemesis Prime
Эпизод 09: Grill
Эпизод 10: Armada
Эпизод 11: Flying Mind
Эпизод 12: Tunnel Vision
Эпизод 13: Triangulation
Эпизод 14: Triage
Эпизод 15: Toxicity
Эпизод 16: Hurt
Эпизод 17: Out of the Past
Эпизод 18: New Recruit
Эпизод 19: The Human Factor
Эпизод 20: Legacy
Эпизод 21: Alpha Omega
Эпизод 22: Hard Knocks
Эпизод 23: Inside Job
Эпизод 24: Patch
Эпизод 25: Regeneration
Эпизод 26: Darkest Hour
Почему 720p, а не 1080p? Потому что 1080p в сериале нету. Всё что есть по сериалу в 1080p - просто увеличенное изображение.
Есть такой тест, на апскейп.
Вот оригинал изображения 1920х1080

Вот это же оригинал уменьшенный до 1280х720

А потом восстановленный вновь до 1920х1080

Ни одна деталь в чёткости не потеряла. Найди мне хоть одну деталь, которая стала выглядить менее чётче.
Доп. информация:

Рип и Захват звука с телеканала "Карусель" - Andron1818
Синхронизация и обработка звука: 1-8 серия, 19-23 серия - Andron1818; 9-18 серия, 24-26 серия - sim_emrom
Ссылка на Трансформеры Прайм 1 сезон
Ссылка на предыдущие и альтернативные раздачи: http://rutracker.org/forum/tracker.php?nm=Transformers%20Prime
Семпл: http://multi-up.com/811044
Качество: BDRip
Формат: MKV
Видео: AVC, 1280х720, 23.976fps, 4 200 Kbps
Аудио: AC-3, 48.0 KHz, 2ch, 192 Kbps, Русский дубляж
Аудио 2: DTS, 48.0 KHz, 6ch, 1 509 Kbps, Американская, оригинал
Субтитры: отсутствуют
Код: Выделить всё
General
Unique ID                      : 221224337132270991653655964084515728307 (0xA66E41ED8DA56CB394079A0C786D6BB3)
Complete name                  :
Format                         : Matroska
Format version                 : Version 4 / Version 2
File size                      : 934 MiB
Duration                       : 22mn 7s
Overall bit rate               : 5 902 Kbps
Encoded date                   : UTC 2010-02-22 21:41:31
Writing application            : mkvmerge v5.9.0 ('On The Loose') built on Dec  9 2012 15:37:01
Writing library                : libebml v1.3.0 + libmatroska v1.4.0
Video
ID                             : 1
Format                         : AVC
Format/Info                    : Advanced Video Codec
Format profile                 : High@L3.1
Format settings, CABAC         : Yes
Format settings, ReFrames      : 4 frames
Codec ID                       : V_MPEG4/ISO/AVC
Duration                       : 22mn 7s
Bit rate                       : 4 200 Kbps
Width                          : 1 280 pixels
Height                         : 720 pixels
Display aspect ratio           : 16:9
Frame rate mode                : Constant
Frame rate                     : 23.976 fps
Color space                    : YUV
Chroma subsampling             : 4:2:0
Bit depth                      : 8 bits
Scan type                      : Progressive
Bits/(Pixel*Frame)             : 0.190
Stream size                    : 646 MiB (69%)
Writing library                : x264 core 125 r2200 999b753
Encoding settings              : cabac=1 / ref=3 / deblock=1:-1:-1 / analyse=0x3:0x113 / me=hex / subme=7 / psy=1 / psy_rd=1.00:0.10 / mixed_ref=1 / me_range=16 / chroma_me=1 / trellis=1 / 8x8dct=1 / cqm=0 / deadzone=21,11 / fast_pskip=1 / chroma_qp_offset=-3 / threads=3 / lookahead_threads=1 / sliced_threads=0 / nr=0 / decimate=1 / interlaced=0 / bluray_compat=0 / constrained_intra=0 / bframes=3 / b_pyramid=2 / b_adapt=1 / b_bias=0 / direct=3 / weightb=1 / open_gop=0 / weightp=2 / keyint=250 / keyint_min=23 / scenecut=40 / intra_refresh=0 / rc_lookahead=40 / rc=2pass / mbtree=1 / bitrate=4200 / ratetol=1.0 / qcomp=0.60 / qpmin=0 / qpmax=69 / qpstep=4 / cplxblur=20.0 / qblur=0.5 / ip_ratio=1.40 / aq=1:1.00
Language                       : English
Default                        : Yes
Forced                         : No
Audio #1
ID                             : 2
Format                         : AC-3
Format/Info                    : Audio Coding 3
Mode extension                 : CM (complete main)
Format settings, Endianness    : Big
Codec ID                       : A_AC3
Duration                       : 22mn 7s
Bit rate mode                  : Constant
Bit rate                       : 192 Kbps
Channel(s)                     : 2 channels
Channel positions              : Front: L R
Sampling rate                  : 48.0 KHz
Bit depth                      : 16 bits
Compression mode               : Lossy
Stream size                    : 30.4 MiB (3%)
Language                       : Russian
Default                        : Yes
Forced                         : No
Audio #2
ID                             : 3
Format                         : DTS
Format/Info                    : Digital Theater Systems
Mode                           : 16
Format settings, Endianness    : Big
Codec ID                       : A_DTS
Duration                       : 22mn 7s
Bit rate mode                  : Constant
Bit rate                       : 1 509 Kbps
Channel(s)                     : 6 channels
Channel positions              : Front: L C R, Side: L R, LFE
Sampling rate                  : 48.0 KHz
Bit depth                      : 24 bits
Compression mode               : Lossy
Stream size                    : 239 MiB (26%)
Language                       : English
Default                        : No
Forced                         : No
Не забывайте говорить Спасибо. Не уходите с раздачи!   
Торрент: Зарегистрирован [02 май 2018, 19:53]
Статус:
Проверен
 
.torrent скачан: 0 раз
Хэш: 420a08b0d1194c5beb42b77cb273acb21b189d60
Размер: 23.72 ГБ (25 467 959 562 байт)
   Стать Автором раздачи
   
Цитата
  • Похожие торренты
    Ответы
    Просмотры
    Последнее сообщение

Вернуться в Трансформеры / Transformers

Кто сейчас на конференции

Сейчас эту тему просматривают: нет зарегистрированных пользователей и гости: 1