Трансформеры / Transformers: The Headmasters / Сезон: 1 / Серии: 13-16 (35) (Сасаки Кацутоси / Sasaki Katsutoshi) [1987, Боевик, Меха, Фантастика, DVD5 (Custom)] Dub (6 канал)

 Статистика раздачи 
Размер: 4.33 ГБ   |  Зарегистрирован: 02 май 2018, 19:50   |   .torrent скачан: 0 раз
Сидеров: 1  [ 0 байт/сек ]     Личеров: 2  [ 0 байт/сек ]  
  
Аватара пользователя
 
Раздал: 256.39 ГБ
Скачал: 432.89 ГБ
Ратио: 0.672
Сообщения: 213355
Стаж: 8 лет 6 месяцев 16 дней

Трансформеры / Transformers: The Headmasters
Год выпуска: 1987
Страна: Япония
Жанр: Боевик, Меха, Фантастика
Продолжительность: 22мин/серия
Перевод: Профессиональный (полное дублирование) (6 канал)
Список серий:
13)«Крепыш Максимус приобретает новую силу / Head On! Fortress Maximus»
14)«Взрыв Марса: Крепыш Максимус в опасности / Explosion on Mars! Maximus Is in Danger»
15)«Взрыв Марса: Скорпоног появляется / Explosion on Mars! MegaZarak Appears»
16)«Непобедимый Гальватрон / Return of the Immortal Emperor»
Описание: 2011 году после долгого своего отсутствия силы десептиконов возвращаются на кибертрон чтобы захватить Сигма-компьютер, который в данный момент находится в стадии перенастройки, и очень уязвим. В бой вступают новые воины - Хром и его команда, а так же огромный космический корабль - Крепыш Максимус, который давным давно (ошибка сценаристов - 4млн лет назад.. тогда людей на Кибертроне быть малость... не могло!) во времена веиких сражений забрал людей с Кибертрона и улетел в космос в поисках нового места для жизни. На планете около звезды Мастер они создали свою культуру и науку, там же, в результате длительных исследований была изобретена технология HeadMasters - робот превращался в голову трансформера. Часть из этих новых трансформеров стали предателями, и были изгнаны с родной планеты. Но они продолжали набеги на другие
планеты, и в конце концов присоединились к десептиконам. Крепыш Максимус и его друзья решили, что должны избавить мир от этих чудовищ, и поэтому присоединились к автоботам.
За дорожки спасибо Джелл.
Ремастеринг: Bma2004
Качество: DVD5
Формат: DVD Video
Видео: MPEG2 Video 720x480 (4/3) 29.97fps 9800Kbps
Аудио: RU - Dolby AC3 48000Hz stereo 448Kbps.
Субтитры: китайские (отключаемые)
Ссылки на альтернативные раздачи
General
Complete name : E:\Headmasters DVD Vol.4\VIDEO_TS\VTS_01_1.VOB
Format : MPEG-PS
File size : 1 024 MiB
Duration : 19mn 38s
Overall bit rate mode : Variable
Overall bit rate : 7 291 Kbps
Video
ID : 224 (0xE0)
Format : MPEG Video
Format version : Version 2
Format profile : Main@Main
Format settings, BVOP : Yes
Format settings, Matrix : Custom
Format settings, GOP : M=3, N=15
Format settings, picture struc : Frame
Duration : 19mn 38s
Bit rate mode : Variable
Bit rate : 6 698 Kbps
Maximum bit rate : 9 800 Kbps
Width : 720 pixels
Height : 480 pixels
Display aspect ratio : 4:3
Frame rate : 29.970 fps
Standard : NTSC
Color space : YUV
Chroma subsampling : 4:2:0
Bit depth : 8 bits
Scan type : Interlaced
Scan order : Top Field First
Compression mode : Lossy
Bits/(Pixel*Frame) : 0.647
Time code of first frame : 01:23:02:27
Time code source : Group of pictures header
GOP, Open/Closed : Open
GOP, Open/Closed of first fram : Closed
Stream size : 941 MiB (92%)
Audio
ID : 189 (0xBD)-128 (0x80)
Format : AC-3
Format/Info : Audio Coding 3
Mode extension : CM (complete main)
Format settings, Endianness : Big
Muxing mode : DVD-Video
Duration : 19mn 37s
Bit rate mode : Constant
Bit rate : 448 Kbps
Channel(s) : 2 channels
Channel positions : Front: L R
Sampling rate : 48.0 KHz
Compression mode : Lossy
Stream size : 62.9 MiB (6%)
Text #1
ID : 189 (0xBD)-32 (0x20)
Format : RLE
Format/Info : Run-length encoding
Muxing mode : DVD-Video
Text #2
ID : 189 (0xBD)-33 (0x21)
Format : RLE
Format/Info : Run-length encoding
Muxing mode : DVD-Video

Сылки на остальные диски:
DVD №1 http://rutracker.org/forum/viewtopic.php?t=324431
DVD №2 http://rutracker.org/forum/viewtopic.php?t=328301
DVD №3 http://rutracker.org/forum/viewtopic.php?t=330817
DVD №4 http://rutracker.org/forum/viewtopic.php?t=5414696
DVD №5 http://rutracker.org/forum/viewtopic.php?t=5415418
DVD №6 http://rutracker.org/forum/viewtopic.php?t=5415420
DVD №7 http://rutracker.org/forum/viewtopic.php?t=5415421
DVD №8 http://rutracker.org/forum/viewtopic.php?t=5415422
DVD №9 http://rutracker.org/forum/viewtopic.php?t=3437368
Не забывайте говорить Спасибо. Не уходите с раздачи!   
Торрент: Зарегистрирован [02 май 2018, 19:50]
Статус:
Проверен
 
.torrent скачан: 0 раз
Хэш: bc222eae38ceaee4842c616cfb795a939fb26af5
Размер: 4.33 ГБ (4 653 946 880 байт)
   Стать Автором раздачи
   
Цитата
  • Похожие торренты
    Ответы
    Просмотры
    Последнее сообщение

Вернуться в Трансформеры / Transformers

Кто сейчас на конференции

Сейчас эту тему просматривают: нет зарегистрированных пользователей и гости: 1