Трансформеры Прайм / Transformers Prime / Сезон: 2 / Серии: 1-26 из 26 (Дэвид Хартман / David Hartman) [2011, Фантастика, Приключения, BDRemux 1080p] Dub + MVO + Original Eng

 Статистика раздачи 
Размер: 117.8 ГБ   |  Зарегистрирован: 02 май 2018, 19:48   |   .torrent скачан: 0 раз
Сидеров: 0  [ 0 байт/сек ]     Личеров: 1  [ 0 байт/сек ]  
  
Аватара пользователя
 
Раздал: 256.39 ГБ
Скачал: 432.89 ГБ
Ратио: 0.672
Сообщения: 188907
Стаж: 7 лет 8 месяцев 11 дней



Трансформеры Прайм / Transformers Prime

Страна: США, Япония
Жанр: Фантастика, Приключения
Год выпуска: 2011
Продолжительность: 00:22:07
Перевод:
Перевод #1: профессиональный дублированный - Карусель
Перевод #2: любительский многоголосый - OpenDub
Режиссёр: Дэвид Хартман / David Hartman
Описание: Действие нового сериала "Transformers: Prime" происходит в "настроенной" ("Alightned") вселенной трансформеров, в которую также входят рисованый сериал "Rescue Bots"(про команду гражданских автоботов, прибывших на сигнал Прайма), две игры - "War for Cybertron" и "Fall of Cybertron"(еще не вышла), пара книг, и комиксы.
Игры можно условно считать предисторией даного сериала, хотя уже и наметились значительные расхождения. В них Мегатрон, во время гражданской войны, узнает о существовании "темного" энергона - синтетического топлива, опасного для большинства механических форм жизни, но при умелом обращении способного придать трансформеру невероятные способности (что - то вроде криптонита из комиксов DC). Используя новое оружие Мегатрон берет штурмом мастерские законного правителя Зеты Прайма, убивает его, а затем проникает в самое ядро Кибертрона и заражает его темным энергоном.
Вектор Сигма (центральный процессор Кибертрона) назначает Оптимуса Прайма новым предводителем автоботов, объявляет о переходе планеты в спящий режим для восстановления и приказывает начинать полную эвакуацию. Прайм отбывает с планеты последним, на корабле "Ковчег".
Сериал начинается с того, что Мегатрон, после многолетнего отсутствия, возвращается на свой флагман, находящийся на земной орбите (на земле были обнаружены залежи нормального энергона), с найденым им образцом необычного черного энергона, называемого "Кровь Юникрона", способным оживлять мертвых трансформеров.
Ссылка на предыдущие и альтернативные раздачи
Семпл
Доп. информация: Диски предоставлены Diablo, звуковые дороги взяты с соседних раздач.
Качество: BDRemux
Формат: MKV
Видео: AVC, 1920x1080, 16:9, 23.976 fps, 26.3 Mbps
Аудио:
Аудио #1: AC-3, 2 channels, 48 KHz, 192 Kbps | Russian (профессиональный дублированный - Карусель)
Аудио #2: AC-3, 2 channels, 48 KHz, 192 Kbps | Russian (любительский многоголосый - OpenDub)
Аудио #3: DTS-HD MA, 6 channels, 48KHz, 1561 Kbps | English
Эпизод 01: Orion Pax: Part 1
Эпизод 02: Orion Pax: Part 2
Эпизод 03: Orion Pax: Part 3
Эпизод 04: Operation Bumblebee: Part 1
Эпизод 05: Operation Bumblebee: Part 2
Эпизод 06: Loose Cannons
Эпизод 07: Crossfire
Эпизод 08: Nemesis Prime
Эпизод 09: Grill
Эпизод 10: Armada
Эпизод 11: Flying Mind
Эпизод 12: Tunnel Vision
Эпизод 13: Triangulation
Эпизод 14: Triage
Эпизод 15: Toxicity
Эпизод 16: Hurt
Эпизод 17: Out of the Past
Эпизод 18: New Recruit
Эпизод 19: The Human Factor
Эпизод 20: Legacy
Эпизод 21: Alpha Omega
Эпизод 22: Hard Knocks
Эпизод 23: Inside Job
Эпизод 24: Patch
Эпизод 25: Regeneration
Эпизод 26: Darkest Hour
Код:
Код: Выделить всё
General
Unique ID                                : 180411577280890689910536534942357090756 (0x87BA0182A8910D48962E3DE0E4DF71C4)
Complete name                            : F:\Transformers Prime Season 2\01 Orion Pax  Part 1.mkv
Format                                   : Matroska
Format version                           : Version 4 / Version 2
File size                                : 4.46 GiB
Duration                                 : 22mn 7s
Overall bit rate                         : 28.9 Mbps
Encoded date                             : UTC 2010-02-22 21:41:31
Writing application                      : mkvmerge v5.9.0 ('On The Loose') built on Dec  9 2012 15:37:01
Writing library                          : libebml v1.3.0 + libmatroska v1.4.0
Video
ID                                       : 1
Format                                   : AVC
Format/Info                              : Advanced Video Codec
Format profile                           : High@L4.1
Format settings, CABAC                   : Yes
Format settings, ReFrames                : 2 frames
Format settings, GOP                     : M=1, N=5
Codec ID                                 : V_MPEG4/ISO/AVC
Duration                                 : 22mn 7s
Bit rate mode                            : Variable
Bit rate                                 : 26.3 Mbps
Maximum bit rate                         : 38.2 Mbps
Width                                    : 1 920 pixels
Height                                   : 1 080 pixels
Display aspect ratio                     : 16:9
Frame rate                               : 23.976 fps
Color space                              : YUV
Chroma subsampling                       : 4:2:0
Bit depth                                : 8 bits
Scan type                                : Progressive
Bits/(Pixel*Frame)                       : 0.530
Stream size                              : 4.07 GiB (91%)
Audio #1
ID                                       : 2
Format                                   : AC-3
Format/Info                              : Audio Coding 3
Mode extension                           : CM (complete main)
Codec ID                                 : A_AC3
Duration                                 : 22mn 7s
Bit rate mode                            : Constant
Bit rate                                 : 192 Kbps
Channel(s)                               : 2 channels
Channel positions                        : Front: L R
Sampling rate                            : 48.0 KHz
Bit depth                                : 16 bits
Compression mode                         : Lossy
Stream size                              : 30.4 MiB (1%)
Title                                    : Dub
Language                                 : Russian
Audio #2
ID                                       : 3
Format                                   : AC-3
Format/Info                              : Audio Coding 3
Mode extension                           : CM (complete main)
Codec ID                                 : A_AC3
Duration                                 : 22mn 7s
Bit rate mode                            : Constant
Bit rate                                 : 192 Kbps
Channel(s)                               : 2 channels
Channel positions                        : Front: L R
Sampling rate                            : 48.0 KHz
Bit depth                                : 16 bits
Compression mode                         : Lossy
Stream size                              : 30.4 MiB (1%)
Title                                    : MVO
Language                                 : Russian
Audio #3
ID                                       : 4
Format                                   : DTS
Format/Info                              : Digital Theater Systems
Format profile                           : MA / Core
Codec ID                                 : A_DTS
Duration                                 : 22mn 7s
Bit rate mode                            : Variable
Bit rate                                 : 1 561 Kbps / 1 510 Kbps
Channel(s)                               : 6 channels
Channel positions                        : Front: L C R, Side: L R, LFE
Sampling rate                            : 48.0 KHz
Bit depth                                : 24 bits
Compression mode                         : Lossless / Lossy
Title                                    : Orig
Language                                 : English




Не забывайте говорить Спасибо. Не уходите с раздачи!   
Торрент: Зарегистрирован [02 май 2018, 19:48] Для скачивания .torrent
необходима регистрация
Или скачать с помощью
MediaGet
Статус:
Проверен
 
.torrent скачан: 0 раз
Хэш: 19c726beaa55ed9561c29be37f88ff57d61a6a0d
Размер: 117.8 ГБ (126 485 046 087 байт)
   Стать Автором раздачи
   
Цитата
  • Похожие торренты
    Ответы
    Просмотры
    Последнее сообщение

Вернуться в Трансформеры / Transformers

Кто сейчас на конференции

Сейчас эту тему просматривают: нет зарегистрированных пользователей и гости: 1