Трансформеры / Transformers: Animated Season 3 / Сезон: 3 / Серии: 1-13 из 13 (Мэт Янгберг / Matt Youngberg) [2008, Анимация, Приключения, SATRip] rus sub

 Статистика раздачи 
Размер: 2.26 ГБ   |  Зарегистрирован: 02 май 2018, 19:44   |   .torrent скачан: 0 раз
Сидеров: 0  [ 0 байт/сек ]     Личеров: 1  [ 0 байт/сек ]  
  
Аватара пользователя
 
Раздал: 256.39 ГБ
Скачал: 432.89 ГБ
Ратио: 0.672
Сообщения: 188907
Стаж: 7 лет 8 месяцев 13 дней

Трансформеры / Transformers: Animated Season 3
Страна: США
Жанр: Анимация, Приключения
Продолжительность: ~00:22:00
Год выпуска: 2008
Перевод: Субтитры (Wardeness и Paks28)
Русские субтитры: есть
Режиссёр: Mэт Янгберг / Matt Youngberg
Роли озвучивали: Corey Burton (Megatron, Ratchet)
Jeff Bennett - (Prowl, Ultra Magnus)
David Kaye - (Optimus Prime, Lugnut, Grimlock)
Tom Kenny - (Starscream, Issac Sumdac)
Bumper Robinson - (Bumblebee)
Bill Fagerbakke - (Bulkhead)
Cree Summer - (Blackarachnia)
Lance Hendrikson - (Lockdown)
Tara Strong - (Sari Sumdac)
Описание: События сериала происходят в недалеком будущем, в Детройте. Трансформеры вынуждены поселиться в мире, населенном людьми и автоматами. Из-за того, что трансформери является пришельцамы в мире людей, их взаимодействие с местным населением порождает много веселых ситуаций. Как обычно, Автоботы будут бороться с Десептиконами и защищать Землю. В сюжете будет присутствовать ярко выражена детская линия. Также творцы сериала обещают много экшена и юмора. В новом сериале Автоботам придется бороться не только из Десептиконами, но и с супер-злодеями, которых много в Детройте. Среди людей-преступников будут присутствовать стрелок с психическим расстройством, парень плюющийся кислотой и парень с именем Прометей. Такие «повседневные» угрозы нужны для того, чтобы сделать Десептиконов, главной угрозой, для борьбы с которой нужны совместимые действия многих Автоботов сразу. Конечно же, время от времени Десептиконы будут использовать для своих целей супер-злодеев...

Список серий:
01 - Метаморфозы, часть 1
02 - Метаморфозы, часть 2
03 - Метаморфозы, часть 3
04 - Третий лишний
05 - Где твоё жало?
06 - Пять сервоприводов смерти
07 - Восстание предаконов
08 - Человеческая ошибка, часть 1
09 - Человеческая ошибка, часть 2
10 - Десептиконы в воздухе
11 - Вот почему я ненавижу машины
12 - Конец игры, часть 1
13 - Конец игры, часть 2

Доп. информация: Долгожданный 3 сезон. Завершение саги.
За основу взята раздача с американского трекера. Первые три серии (трилогия Transwarped) слиты в одну полнометражку длительностью 65 минут. Во всех сериях отсутствуют финальные титры.
Ссылка на предыдущие и альтернативные раздачи: http://rutracker.org/forum/tracker.php?f=1165&nm=transformers
Качество: SATRip
Формат: AVI
Видео: Video: DivX 5 640x480 23.98fps 1045kbps [Video 0]
Аудио: Audio: MPEG Audio Layer 3 48000Hz stereo 128kbps [Audio 1]
Субтитры: русские внешние (.srt)
Сэмпл: http://multi-up.com/588271
Код: Выделить всё
General
Полное имя                       : E:\Transformers Animated Season 3 (rus)\01.Transformers Animated - TransWarped {C_P}.avi
Формат                           : AVI
Формат/Информация                : Audio Video Interleave
Размер файла                     : 551 MiB
Продолжительность                : 1h 5mn
Общий поток                      : 1 183 Kbps
Программа кодирования            : VirtualDubMod 1.5.10.2 (build 2540/release)
Библиотека кодирования           : VirtualDubMod build 2540/release
Video
Идентификатор                    : 0
Формат                           : MPEG-4 Visual
Параметр BVOP формата            : 1
Параметр QPel формата            : No
Параметр GMC формата             : No warppoints
Параметр матрицы формата         : Default (H.263)
Режим смешивания                 : Packed bitstream
Идентификатор кодека             : DX50
Идентификатор кодека/Подсказка   : DivX 5
Продолжительность                : 1h 5mn
Битрейт                          : 1 045 Kbps
Ширина                           : 640 pixels
Высота                           : 480 pixels
Соотношение сторон               : 4:3
Частота кадров                   : 23.976 fps
Цветовое пространство            : YUV
Субдискретизация насыщенности    : 4:2:0
Битовая глубина                  : 8 bits
Тип развёртки                    : Progressive
Метод сжатия                     : Lossy
Бит/(Пиксели*Кадры)              : 0.142
Размер потока                    : 487 MiB (88%)
Библиотека кодирования           : DivX 6.8.5 (UTC 2009-08-20)
Audio
Идентификатор                    : 1
Формат                           : MPEG Audio
Версия формата                   : Version 1
Профиль формата                  : Layer 3
Режим                            : Joint stereo
Расширение режима                : MS Stereo
Идентификатор кодека             : 55
Идентификатор кодека/Подсказка   : MP3
Продолжительность                : 1h 5mn
Вид битрейта                     : Constant
Битрейт                          : 128 Kbps
Каналы                           : 2 channels
Частота                          : 48.0 KHz
Метод сжатия                     : Lossy
Размер потока                    : 59.6 MiB (11%)
Выравнивание                     : Split accross interleaves
Продолжительность промежутка     : 42 ms (1.00 video frame)
Время предзагрузки промежутка    : 500 ms
Торрент обновлен 03.02.2012. Обновлены субтитры к сериям 1-3, исправлены грамматические ошибки и неточности перевода.
Добавлены зеркала на скачивание. Если воспользуетесь ими - просьба затем встать на раздачу
Не забывайте говорить Спасибо. Не уходите с раздачи!   
Торрент: Зарегистрирован [02 май 2018, 19:44] Для скачивания .torrent
необходима регистрация
Или скачать с помощью
MediaGet
Статус:
Проверен
 
.torrent скачан: 0 раз
Хэш: b3bbc00292792b81428e61fcb2273689fa8619a3
Размер: 2.26 ГБ (2 422 317 834 байт)
   Стать Автором раздачи
   
Цитата
  • Похожие торренты
    Ответы
    Просмотры
    Последнее сообщение

Вернуться в Трансформеры / Transformers

Кто сейчас на конференции

Сейчас эту тему просматривают: нет зарегистрированных пользователей и гости: 1