Трансформеры Прайм / Transformers Prime / Сезон: 2 / Серии: 1-26 (Давид Хартман / David Hartman) [2012, Меха, приключения, WEB-DL] VO

 Статистика раздачи 
Размер: 6.05 ГБ   |  Зарегистрирован: 02 май 2018, 19:42   |   .torrent скачан: 0 раз
Сидеров: 0  [ 0 байт/сек ]     Личеров: 1  [ 0 байт/сек ]  
  
Аватара пользователя
 
Раздал: 256.39 ГБ
Скачал: 432.89 ГБ
Ратио: 0.672
Сообщения: 188907
Стаж: 7 лет 8 месяцев 13 дней

Трансформеры -Прайм [ТВ] 2/Transformers Prime 2

Страна: Япония Сша
Год выпуска: 2012
Жанр: Меха, приключения
Тип: TV
Сезон (количество): 2
Серии (количество): 26
Продолжительность: 00:22:00
Перевод: Любительский (одноголосый закадровый)
Русские субтитры: нет
Режиссер: David Hartman (Давид Хартман)
Orion Pax, Part 1
Orion Pax, Part 2
Orion Pax, Part 3
Operation Bumblebee Part 1
Operation Bumblebee Part 2
LooseCannons[RUS]
Crossfire
Nemesis Prime
Grill
Armada
Flying Mind
Tunnel Vision
Triangulation
Triage
Toxicity
Pain
Out Of The Past
New Recruit
The Human Factor
Legacy
AlphaOmega
Patch
Regeneration
Darkest Hour

Описание:Трансформеры: Прайм являются очередной франшизой сериала Трансформеры, который вышел осенью 2010 года.
Новые Трансформеры идут по сюжету Transformers: War for Cybertron, основанный на видеоигре, в которой события происходят на родной планете Трансформеров.
Новая история войны Десептиконов и Автоботов происходит на Земле.
В то время, пока идет война между роботами, Мегатрон пытается найти и управлять Темным Энергоном, чтобы с его помощью уничтожить Автоботов.
Ссылка на альтернативные раздачи:
HDTVRip 1080p - http://rutracker.org/forum/viewtopic.php?t=4049859
HDTVRip 720p - http://rutracker.org/forum/viewtopic.php?t=4049883
Sempl http://narod.ru/disk/43914065001.5f667131404714b215f112d495c5fde6/sempl.avi.html
Качество: WEBDL / Тип видео: без хардсаба / Формат:AVI
Видео: Xvid 624x352 1494 Kbps 29.98fps
Аудио #1: Ru-Vo MP3 48000Hz 192Kbps;
Аудио #2: Eng-MP3 48000Hz 192Kbps;
Субтитры: Осутствуют
Тайминг: (1,6)SoulofDark,(2-4) Ranfan(7-8)Azazel
Работа со звуком и Озвучивание: azazel
Субтитры: Deska

General
Complete name : F:\Transformers_Prime\Transformers_Prime_TV_2\Transformers_Prime_S02E01_Orion_ Pax_Part 3_[RUS]_[ENG]_[Xvid_624x352].avi
Format : AVI
Format/Info : Audio Video Interleave
File size : 237 MiB
Duration : 22mn 11s
Overall bit rate : 1 494 Kbps
Writing application : VirtualDubMod 1.5.10.2 (build 2540/release)
Writing library : VirtualDubMod build 2540/release
Video
ID : 0
Format : MPEG-4 Visual
Format profile : Advanced Simple@L5
Format settings, BVOP : 2
Format settings, QPel : No
Format settings, GMC : No warppoints
Format settings, Matrix : Default (H.263)
Codec ID : XVID
Codec ID/Hint : XviD
Duration : 22mn 11s
Bit rate : 1 092 Kbps
Width : 624 pixels
Height : 352 pixels
Display aspect ratio : 16:9
Frame rate : 29.970 fps
Color space : YUV
Chroma subsampling : 4:2:0
Bit depth : 8 bits
Scan type : Progressive
Compression mode : Lossy
Bits/(Pixel*Frame) : 0.166
Stream size : 173 MiB (73%)
Writing library : XviD 1.2.1 (UTC 2008-12-04)
Audio #1
ID : 1
Format : MPEG Audio
Format version : Version 1
Format profile : Layer 3
Codec ID : 55
Codec ID/Hint : MP3
Duration : 22mn 11s
Bit rate mode : Constant
Bit rate : 192 Kbps
Channel(s) : 2 channels
Sampling rate : 48.0 KHz
Compression mode : Lossy
Stream size : 30.5 MiB (13%)
Alignment : Aligned on interleaves
Interleave, duration : 33 ms (1.00 video frame)
Interleave, preload duration : 504 ms
Audio #2
ID : 2
Format : MPEG Audio
Format version : Version 1
Format profile : Layer 3
Mode : Joint stereo
Mode extension : MS Stereo
Codec ID : 55
Codec ID/Hint : MP3
Duration : 22mn 11s
Bit rate mode : Constant
Bit rate : 192 Kbps
Channel(s) : 2 channels
Sampling rate : 48.0 KHz
Compression mode : Lossy
Stream size : 30.5 MiB (13%)
Alignment : Split accross interleaves
Interleave, duration : 33 ms (1.00 video frame)
Interleave, preload duration : 500 ms
Writing library : LAME3.98

http://vk.com/transformersprime
Заходите) Есть много чего интересного)
Спасибо тем кто взялся делать субтитры для этого сериала



Не забывайте говорить Спасибо. Не уходите с раздачи!   
Торрент: Зарегистрирован [02 май 2018, 19:42] Для скачивания .torrent
необходима регистрация
Или скачать с помощью
MediaGet
Статус:
Проверен
 
.torrent скачан: 0 раз
Хэш: 7c89e2b0e0ccb8e6be168d145379a31aeaf12f7d
Размер: 6.05 ГБ (6 495 600 640 байт)
   Стать Автором раздачи
   
Цитата
  • Похожие торренты
    Ответы
    Просмотры
    Последнее сообщение

Вернуться в Трансформеры / Transformers

Кто сейчас на конференции

Сейчас эту тему просматривают: нет зарегистрированных пользователей и гости: 1