Трансформеры: Прайм / Transformers: Prime / Сезон: 1 / Серия: 3 (David Hartman) [2010, Меха, приключения, HDTV 720p] MVO

 Статистика раздачи 
Размер: 569.84 МБ   |  Зарегистрирован: 02 май 2018, 19:37   |   .torrent скачан: 0 раз
Сидеров: 0  [ 0 байт/сек ]     Личеров: 1  [ 0 байт/сек ]  
  
Аватара пользователя
 
Раздал: 256.39 ГБ
Скачал: 432.89 ГБ
Ратио: 0.672
Сообщения: 213358
Стаж: 8 лет 6 месяцев 7 дней

Трансформеры: Прайм / Transformers: Prime
Страна: Япония, США
Жанр: Меха, приключения
Сезон (количество): 1
Серии (количество): 26
Продолжительность: 00:22:00
Год выпуска: 2010
Перевод: Любительский (многоголосый закадровый)
Русские субтитры: нет
Режиссёр: David Hartman
Описание: Трансформеры: Прайм является очередной франшизой сериала Трансформеры, который вышел в осенью 2010 года.
Новые Трансформеры идут по сюжету Transformers: War for Cybertron, основанный на видеоигре, в которой события происходят на родной планете Трансформеров.
Новая история войны Десептиконов и Автоботом на 3 планете, Земля.
Дружба некоторых человеческих детей с Автоботами, чтобы защитить Землю от Десептиконов, и предотвратить возвращение Мегатрона на землю, не увеличивает их шансы на победу.
В это время, пока идет война между роботами, Мегатрон пытается найти и управлять Темным Энергоном, чтобы с помощью им уничтожить Автоботов.

Список серий:
Darkness Rising Part 1
Darkness Rising Part 2
Darkness Rising Part 3
Darkness Rising Part 4
Darkness Rising Part 5

Сэмпл:http://depositfiles.com/files/s8d18ijgd
Доп. информация:
Над релизом работали:
* Перевод: Anjey_anjey, ghfqv
* Редактирование субтитров : Anjey_anjey
* Сведение : ghfqv
* Работа со звуком: ghfqv
Роли озвучивали:
ghfqv, Pirato4ka, Anjey_anjey, Svarog, Hero
Выражаем особую благодарность : Pirato4ka ( за озвучку женских ролей), Anjey_anjey (за перевод серии)
Раздача на замену этой http://rutracker.org/forum/viewtopic.php?t=3316439
Ссылка на предыдущие и альтернативные раздачи: http://rutracker.org/forum/search.php?nm=%D2%F0%E0%ED%F1%F4%EE%F0%EC%E5%F0%FB+%CF%F0%E0%E9
Качество: HDTV 720p
Формат: MKV
Видео: AVC, 1280х720, 23.976 fps, 3 174 Kbps
Аудио: AC-3, 48.0 KHz, 6 channels, 448 Kbps
Субтитры: отсутствуют
Код: Выделить всё
L:\PFiles\Transformers.Prime.S01E03.Darkness.Rising.3.720p.HDTV.DD5.1.x264.mkv
   General
      Complete name : L:\PFiles\Transformers.Prime.S01E03.Darkness.Rising.3.720p.HDTV.DD5.1.x264.mkv
      Format : Matroska
      File size : 570 MiB
      Duration : 22mn 3s
      Overall bit rate : 3 613 Kbps
      Encoded date : UTC 2011-01-19 06:23:53
      Writing application : mkvmerge v4.3.0 ('Escape from the Island') ñáîðêà îò Sep  5 2010 10:30:51
      Writing library : libebml v1.0.0 + libmatroska v1.0.0
   Video #1
      ID : 1
      Format : AVC
      Format/Info : Advanced Video Codec
      Format profile : High@L4.1
      Format settings, CABAC : Yes
      Format settings, ReFrames : 5 frames
      Muxing mode : Container profile=Unknown@4.1
      Codec ID : V_MPEG4/ISO/AVC
      Duration : 22mn 3s
      Bit rate : 3 174 Kbps
      Width : 1 280 pixels
      Height : 720 pixels
      Display aspect ratio : 16:9
      Frame rate : 23.976 fps
      Color space : YUV
      Chroma subsampling : 4:2:0
      Bit depth : 8 bits
      Scan type : Progressive
      Bits/(Pixel*Frame) : 0.144
      Stream size : 488 MiB (86%)
      Writing library : x264 core 98 r1649 20cbe10
      Encoding settings : cabac=1 / ref=5 / deblock=1:1:1 / analyse=0x3:0x133 / me=umh / subme=9 / psy=1 / psy_rd=1.00:0.00 / mixed_ref=1 / me_range=32 / chroma_me=1 / trellis=2 / 8x8dct=1 / cqm=0 / deadzone=21,11 / fast_pskip=0 / chroma_qp_offset=-2 / threads=6 / sliced_threads=0 / nr=0 / decimate=0 / interlaced=0 / constrained_intra=0 / bframes=6 / b_pyramid=2 / b_adapt=2 / b_bias=0 / direct=3 / weightb=1 / weightp=2 / keyint=250 / keyint_min=25 / scenecut=40 / intra_refresh=0 / rc_lookahead=64 / rc=2pass / mbtree=1 / bitrate=3174 / ratetol=1.0 / qcomp=0.80 / qpmin=10 / qpmax=51 / qpstep=4 / cplxblur=20.0 / qblur=0.5 / vbv_maxrate=40000 / vbv_bufsize=40000 / ip_ratio=1.40 / aq=1:0.50 / nal_hrd=none
      Language : English
   Audio #2
      ID : 2
      Format : AC-3
      Format/Info : Audio Coding 3
      Mode extension : CM (complete main)
      Muxing mode : Header stripping
      Codec ID : A_AC3
      Duration : 22mn 3s
      Bit rate mode : Constant
      Bit rate : 448 Kbps
      Channel(s) : 6 channels
      Channel positions : Front: L C R, Side: L R, LFE
      Sampling rate : 48.0 KHz
      Bit depth : 16 bits
      Stream size : 70.7 MiB (12%)



Раздача обновляемая
Не забывайте говорить Спасибо. Не уходите с раздачи!   
Торрент: Зарегистрирован [02 май 2018, 19:37]
Статус:
Проверен
 
.torrent скачан: 0 раз
Хэш: 7a3a0670885838d4eb2a96989be1a323bd1312d9
Размер: 569.84 МБ (597 524 573 байт)
   Стать Автором раздачи
   
Цитата
  • Похожие торренты
    Ответы
    Просмотры
    Последнее сообщение

Вернуться в Трансформеры / Transformers

Кто сейчас на конференции

Сейчас эту тему просматривают: нет зарегистрированных пользователей и гости: 1