Полицейский с Рублёвки: Снова дома [S03] (2018) WEBRip-AVC от OlLanDGroup

 Статистика раздачи 
Размер: 6.36 ГБ   |  Зарегистрирован: 30 апр 2018, 13:37   |   .torrent скачан: 203 раз
Сидеров: 120  [ 0 байт/сек ]     Личеров: 7  [ 0 байт/сек ]  
  
Аватара пользователя
Главный редактор
Главный редактор
 
Раздал: 78.18 ТБ
Скачал: 3.73 ТБ
Ратио: 21.403
Сообщения: 209757
Стаж: 8 лет 7 месяцев 21 день
Откуда: Санкт-Петербург

Полицейский с Рублёвки: Снова дома
Эпизоды с 1 по 8 (из 8)



Год выпуска: 2018
Страна: Россия
Производство: АВ Контент
Жанр: Комедия, криминал, драма

Режиссёр: Илья Куликов
В ролях: : Александр Петров (II), Сергей Бурунов, Роман Попов, Георгий Клинаев, Ирина Вилкова, Татьяна Бабенкова, Софья Каштанова, Ростислав Гулбис, Сергей Штатнов, Александра Бортич, Александр Дерепко, Светлана Суханова, Мария Безродная, Анна Котова-Дерябина, Велимир Русаков, Константин Быков

Перевод: Не требуется
Субтитры: Нет
Реклама: Отсутствует

Описание: В третьей части сериала Гриша Измайлов с триумфом возвращается на Рублёвку в новой должности начальника родного отдела. Его радость разделяют все вернувшиеся домой коллеги. Все, кроме одного: бывший начальник Яковлев теперь всего лишь глава оперов. И готов на всё, лишь бы вернуть себе власть и сбросить гнёт ненавистного Измайлова.



Качество: WEBRip-AVC
Продолжительность: по ~ 00:50:00

Формат: MKV
Видео кодек: MPEG-4 AVC
Аудио кодек: AC3
Видео: 1024x476 (2,2:1), 25,000 fps, x264 ~2000 kbps avg, 0.164 bit/pixel
Аудио: 48 kHz, Audio Coding 3, 2.0 Front: L R, ~192 kbps avg | RUS


Релиз от: Rip by:


x264 [info]: using cpu capabilities: MMX2 SSE2Fast SSSE3 SSE4.2 AVX
x264 [info]: profile High, level 4.1
x264 [info]: frame I:647 Avg QP:15.05 size: 48373
x264 [info]: frame P:26116 Avg QP:18.51 size: 17697
x264 [info]: frame B:46415 Avg QP:20.17 size: 5127

Общее
Уникальный идентификатор : 79484365546227699016981270403950524439 (0x3BCC21C8E435656F6305B72EE8333817)
Полное имя : D:ВидеоPolizeyskiy S Rublevki.S3. 2018.WEB-DLRip-AVC.OlLanDGroupPolizeyskiy S Rublevki .S03.E01.2017.WEB-DLRip-AVC.OlLanDGroup.mkv
Формат : Matroska
Версия формата : Version 4 / Version 2
Размер файла : 766 Мбайт
Продолжительность : 48 м.
Общий поток : 2194 Кбит/сек
Название фильма : Polizeyskiy S Rublevki .S02.E01.2017.WEB-DLRip-AVC.Rip by Vovan366
Дата кодирования : UTC 2018-04-17 15:26:27
Программа кодирования : mkvmerge v22.0.0 ('At The End Of The World') 64-bit
Библиотека кодирования : libebml v1.3.5 + libmatroska v1.4.8
DURATION : 00:48:47.232000000
NUMBER_OF_FRAMES : 91476
NUMBER_OF_BYTES : 70253568
_STATISTICS_WRITING_APP : mkvmerge v22.0.0 ('At The End Of The World') 64-bit
_STATISTICS_WRITING_DATE_UTC : 2018-04-17 15:26:27
_STATISTICS_TAGS : BPS DURATION NUMBER_OF_FRAMES NUMBER_OF_BYTES
Attachment : Yes

Видео
Идентификатор : 1
Формат : AVC
Формат/Информация : Advanced Video Codec
Профиль формата : High@L4.1
Параметр CABAC формата : Да
Параметр ReFrames формата : 9 кадров
Идентификатор кодека : V_MPEG4/ISO/AVC
Продолжительность : 48 м.
Битрейт : 2000 Кбит/сек
Ширина : 1024 пикселя
Высота : 476 пикселей
Соотношение сторон : 2,2:1
Режим частоты кадров : Постоянный
Частота кадров : 25,000 кадров/сек
Цветовое пространство : YUV
Субдискретизация насыщенности : 4:2:0
Битовая глубина : 8 бит
Тип развёртки : Прогрессивная
Бит/(Пиксели*Кадры) : 0.164
Размер потока : 683 Мбайт (89%)
Заголовок : Polizeyskiy S Rublevki .S02.E01.2017.WEB-DLRip-AVC.OlLanDGroup
Библиотека кодирования : x264 core 146 r2538 121396c
Настройки программы : cabac=1 / ref=9 / deblock=1:-3:-3 / analyse=0x3:0x133 / me=umh / subme=10 / psy=1 / psy_rd=1.00:0.00 / mixed_ref=1 / me_range=32 / chroma_me=1 / trellis=2 / 8x8dct=1 / cqm=0 / deadzone=21,11 / fast_pskip=0 / chroma_qp_offset=-2 / threads=6 / lookahead_threads=1 / sliced_threads=0 / nr=0 / decimate=0 / interlaced=0 / bluray_compat=0 / constrained_intra=0 / bframes=10 / b_pyramid=2 / b_adapt=1 / b_bias=0 / direct=3 / weightb=1 / open_gop=0 / weightp=2 / keyint=250 / keyint_min=25 / scenecut=40 / intra_refresh=0 / rc_lookahead=40 / rc=2pass / mbtree=0 / bitrate=2000 / ratetol=1.0 / qcomp=0.60 / qpmin=0 / qpmax=69 / qpstep=4 / cplxblur=20.0 / qblur=0.5 / vbv_maxrate=50000 / vbv_bufsize=52500 / nal_hrd=none / filler=0 / ip_ratio=1.40 / pb_ratio=1.30 / aq=1:1.00
Default : Да
Forced : Нет

Аудио
Идентификатор : 2
Формат : AC-3
Формат/Информация : Audio Coding 3
Расширение режима : CM (complete main)
Параметр Endianness формата : Big
Идентификатор кодека : A_AC3
Продолжительность : 48 м.
Вид битрейта : Постоянный
Битрейт : 192 Кбит/сек
Каналы : 2 канала
Расположение каналов : Front: L R
Частота : 48,0 КГц
Битовая глубина : 16 бит
Метод сжатия : С потерями
Размер потока : 67,0 Мбайт (9%)
Default : Да
Forced : Нет

Не забывайте говорить Спасибо. Не уходите с раздачи!   
Торрент: Зарегистрирован [30 апр 2018, 13:37]
Статус:
Проверен
 
.torrent скачан: 203 раз
Хэш: 91a4d2ce9a7629ea7168d660a0cc83eb7758fada
Размер: 6.36 ГБ (6 831 310 304 байт)
   Стать Автором раздачи
   
Цитата

Вернуться в Полицейский с Рублёвки

Кто сейчас на конференции

Сейчас эту тему просматривают: нет зарегистрированных пользователей и гости: 1