Форс-мажоры / Suits [S03] (2013) BDRip 720p | Первый канал

 Статистика раздачи 
Размер: 25.75 ГБ   |  Зарегистрирован: 29 апр 2018, 20:24   |   .torrent скачан: 0 раз
Сидеров: 0  [ 0 байт/сек ]     Личеров: 101  [ 0 байт/сек ]  
  
Аватара пользователя
Главный редактор
Главный редактор
 
Раздал: 83.18 ТБ
Скачал: 3.76 ТБ
Ратио: 22.541
Сообщения: 214001
Стаж: 8 лет 8 месяцев 26 дней
Откуда: Санкт-Петербург

Информация о фильме
Название: Форс-мажоры / Костюмы в законе
Оригинальное название: Suits
Год выхода: 2013
Жанр: Драма
Режиссер: Кевин Брэй / Kevin Bray, Джон Скотт / John Scott, Майкл Смит / Michael Smith
В ролях: Гэбриел Махт, Патрик Дж. Адамс, Рик Хоффман, Меган Маркл, Сара Рафферти, Джина Торрес, Ванесса Рэй, Том Липински, Макс Топплин, Ребекка Скул, Джулиан ДеЗотти, Бен Льюис и др


Описание:
Убегая после неудачной попытки сбыта наркотиков, юрист-самоучка Майк Росс, выдающий себя за выпускника Гарварда, попадает на собеседование к одному из лучших адвокатов по сделкам Нью-Йорка Харви Спектру. Устав от скучных соискателей, мечтающих «верой и правдой служить букве закона», Харви рискует и нанимает Майка: у парня врожденный талант и фотографическая память. Так рождается один из самых неоднозначных, но, в то же время, и самых блестящих тандемов законников на Манхэттене.






Страна: США
Продолжительность: ~00:43:00
Перевод: Профессиональный (многоголосый закадровый) | Первый канал + Original
Доп. информация: 1-ая серия на Первом канале была сокращенной. Итог - вырезано превью и 6 сцен. На эти места была вставлена озвучка NewStudio. "Пробелы" в субтитрах заполнены переводом To4ka Translate.


Файл
Формат: MKV
Качество: BD 720p
Видео: 1280x720 (16:9), 23.976 fps, 3892 Kbps
Аудио: Русский / Первый канал, AC3, 48 kHz, 5.1, ~640.00 kbps avg
Аудио: English / Original, AC3, 48 kHz, 5.1, ~640.00 kbps avg
Субтитры: Russian (Первый канал), Russian (To4ka Translate), English, English (SDH)

Семпл

16.07.2013 – 01. Соглашение
23.07.2013 – 02. Я хочу, чтобы ты хотел меня
30.07.2013 – 03. Неоконченные дела
06.08.2013 – 04. Конфликт интересов
13.08.2013 – 05. Тень сомнения
20.08.2013 – 06. Былые времена
27.08.2013 – 07. Она моя
03.09.2013 – 08. Конец игры
10.09.2013 – 09. Вероломство
17.09.2013 – 10. Останься
06.03.2014 – 11. Погребенные секреты
13.03.2014 – 12. Прошлое не изменишь
20.03.2014 – 13. Спорный вопрос
27.03.2014 – 14. Дела сердечные
03.04.2014 – 15. Знай, когда отступить
10.04.2014 – 16. Выхода нет
Общее
Уникальный идентификатор : 215959153642723437296800622427853228449 (0xA2783856EF0D640C86DC721B892709A1)
Полное имя : D:ВидеоСериалыФорс-Мажоры - Suits3 сезонSuits.S03E01.720p.BDRip.2xRus.Eng.HDCLUB.mkv
Формат : Matroska
Версия формата : Version 4 / Version 2
Размер файла : 1,77 Гбайт
Продолжительность : 48 м.
Общий поток : 5277 Кбит/сек
Дата кодирования : UTC 2015-01-09 18:50:22
Программа кодирования : mkvmerge v7.5.0 ('Glass Culture') 64bit built on Jan 4 2015 16:48:44
Библиотека кодирования : libebml v1.3.1 + libmatroska v1.4.2
_STATISTICS_WRITING_APP : mkvmerge v7.5.0 ('Glass Culture') 64bit built on Jan 4 2015 16:48:44
_STATISTICS_WRITING_DATE_UTC : 2015-01-09 18:50:22
_STATISTICS_TAGS : BPS DURATION NUMBER_OF_FRAMES NUMBER_OF_BYTES
DURATION : 00:47:24.967000000
NUMBER_OF_FRAMES : 969
NUMBER_OF_BYTES : 37420

Видео
Идентификатор : 5
Формат : AVC
Формат/Информация : Advanced Video Codec
Профиль формата : Baseline@L1.3
Параметр CABAC формата : Нет
Параметр ReFrames формата : 1 кадр
Параметр GOP формата : M=1, N=12
Идентификатор кодека : V_MPEG4/ISO/AVC
Продолжительность : 48 м.
Битрейт : 3892 Кбит/сек
Ширина : 1280 пикселей
Высота : 720 пикселей
Соотношение сторон : 16:9
Режим частоты кадров : Постоянный
Частота кадров : 23,976 кадра/сек
Цветовое пространство : YUV
Субдискретизация насыщенности : 4:2:0
Битовая глубина : 8 бит
Тип развёртки : Прогрессивная
Бит/(Пиксели*Кадры) : 0.176
Размер потока : 1,31 Гбайт (74%)
Язык : English
Default : Да
Forced : Нет

Аудио #1
Идентификатор : 6
Формат : AC-3
Формат/Информация : Audio Coding 3
Расширение режима : CM (complete main)
Параметр Endianness формата : Big
Идентификатор кодека : A_AC3
Продолжительность : 48 м.
Вид битрейта : Постоянный
Битрейт : 640 Кбит/сек
Каналы : 6 каналов
Расположение каналов : Front: L C R, Side: L R, LFE
Частота : 48,0 КГц
Битовая глубина : 16 бит
Метод сжатия : С потерями
Размер потока : 220 Мбайт (12%)
Язык : Russian
Default : Да
Forced : Нет

Аудио #2
Идентификатор : 7
Формат : AC-3
Формат/Информация : Audio Coding 3
Расширение режима : CM (complete main)
Параметр Endianness формата : Big
Идентификатор кодека : A_AC3
Продолжительность : 48 м.
Вид битрейта : Постоянный
Битрейт : 640 Кбит/сек
Каналы : 6 каналов
Расположение каналов : Front: L C R, Side: L R, LFE
Частота : 48,0 КГц
Битовая глубина : 16 бит
Метод сжатия : С потерями
Размер потока : 220 Мбайт (12%)
Язык : English
Default : Нет
Forced : Нет

Текст #1
Идентификатор : 1
Формат : UTF-8
Идентификатор кодека : S_TEXT/UTF8
Идентификатор кодека/Информация : UTF-8 Plain Text
Заголовок : Первый канал
Язык : Russian
Default : Нет
Forced : Нет
DURATION : 00:48:01.754000000
NUMBER_OF_FRAMES : 69093
NUMBER_OF_BYTES : 1438576427
_STATISTICS_WRITING_APP : mkvmerge v7.5.0 ('Glass Culture') 64bit built on Jan 4 2015 16:48:44
_STATISTICS_WRITING_DATE_UTC : 2015-01-09 18:50:22
_STATISTICS_TAGS : BPS DURATION NUMBER_OF_FRAMES NUMBER_OF_BYTES

Текст #2
Идентификатор : 2
Формат : UTF-8
Идентификатор кодека : S_TEXT/UTF8
Идентификатор кодека/Информация : UTF-8 Plain Text
Заголовок : To4ka Translate
Язык : Russian
Default : Нет
Forced : Нет
DURATION : 00:48:01.952000000
NUMBER_OF_FRAMES : 90061
NUMBER_OF_BYTES : 230556160
_STATISTICS_WRITING_APP : mkvmerge v7.5.0 ('Glass Culture') 64bit built on Jan 4 2015 16:48:44
_STATISTICS_WRITING_DATE_UTC : 2015-01-09 18:50:22
_STATISTICS_TAGS : BPS DURATION NUMBER_OF_FRAMES NUMBER_OF_BYTES

Текст #3
Идентификатор : 3
Формат : UTF-8
Идентификатор кодека : S_TEXT/UTF8
Идентификатор кодека/Информация : UTF-8 Plain Text
Заголовок : SDH
Язык : English
Default : Нет
Forced : Нет

Текст #4
Идентификатор : 4
Формат : UTF-8
Идентификатор кодека : S_TEXT/UTF8
Идентификатор кодека/Информация : UTF-8 Plain Text
Заголовок : Non-SDH
Язык : English
Default : Нет
Forced : Нет
Не забывайте говорить Спасибо. Не уходите с раздачи!   
Торрент: Зарегистрирован [29 апр 2018, 20:24]
Статус:
Проверен
 
.torrent скачан: 0 раз
Хэш: 0bd8711b8df9ab626820aa8b87bf56c7ac3f56c8
Размер: 25.75 ГБ (27 645 553 233 байт)
   Стать Автором раздачи
   
Цитата
  • Похожие торренты
    Ответы
    Просмотры
    Последнее сообщение

Вернуться в Форс-мажоры / Suits

Кто сейчас на конференции

Сейчас эту тему просматривают: нет зарегистрированных пользователей и гости: 1