Полицейский с Рублёвки в Бескудниково [S02] (2017) WEB-DLRip-AVC от OlLanDGroup

 Статистика раздачи 
Размер: 5.76 ГБ   |  Зарегистрирован: 27 апр 2018, 08:23   |   .torrent скачан: 1336 раз
Сидеров: 172  [ 0 байт/сек ]     Личеров: 13  [ 0 байт/сек ]  
  
Аватара пользователя
 
Раздал: 5.56 ТБ
Скачал: 188.19 ГБ
Ратио: 30.260
Сообщения: 230198
Стаж: 2 года 2 месяца 24 дня

Полицейский с Рублевки в Бескудниково

Эпизоды с 1 по 8 (из 8)


Год выпуска: 2017
Страна: Россия
Производство: АВ Контент
Жанр: Драма, комедия

Режиссёр: Илья Куликов
В ролях: Александр Петров (III), Сергей Бурунов, Роман Попов, Георгий Клинаев, Ирина Вилкова, Татьяна Бабенкова, Софья Каштанова, Ростислав Гулбис, Сергей Штатнов, Александра Бортич, Александр Дерепко, Светлана Суханова, Мария Безродная, Анна Котова-Дерябина, Велимир Русаков, Константин Быков

Перевод: Не требуется
Субтитры: Нет
Реклама: Отсутствует

Описание: Полицейские получили повышение. Отныне, Гриша Измайлов — начальник оперов, Мухич — руководитель следственной группы, а возглавляет весь отдел подполковник Яковлев. Радость полицейских быстро проходит, когда они узнают, что работать им придется не в сытой Барвихе, а в обычном московском ОМВД района Бескудниково.

Релиз от: Rip by:
Качество: WEB-DLRip-AVC
Продолжительность: по ~ 00:50:00

Формат: MKV
Видео кодек: х264
Аудио кодек: AC3
Свойства видео: 1024x516 (1,984), 25 fps, x264, ~ 1800 kbps avg, 0.136 bit/pixel
Свойства аудио: 48 KHz, Audio Coding 3, 2 ch, ~192.00 kbps avg


Общее
Уникальный идентификатор : 223092676623545363916353852072394537632 (0xA7D6162D4556C59FB2BB2430BDCCBAA0)
Полное имя : D:ВидеоPolizeyskiy S Rublevki 2017.WEB-DLRip-AVC.OlLanDGroupPolizeyskiy S Rublevki .S02.E01.2017.WEB-DLRip-AVC.OlLanDGroup.mkv
Формат : Matroska
Версия формата : Version 2
Размер файла : 705 Мбайт
Продолжительность : 49 м.
Общий поток : 1993 Кбит/сек
Дата кодирования : UTC 2017-05-23 04:54:48
Программа кодирования : mkvmerge v7.8.0 ('River Man') 32bit built on Apr 3 2015 12:11:22
Библиотека кодирования : libebml v1.3.1 + libmatroska v1.4.2

Видео
Идентификатор : 1
Формат : AVC
Формат/Информация : Advanced Video Codec
Профиль формата : High@L4.1
Параметр CABAC формата : Да
Параметр ReFrames формата : 10 кадров
Идентификатор кодека : V_MPEG4/ISO/AVC
Продолжительность : 49 м.
Битрейт : 1800 Кбит/сек
Ширина : 1024 пикселя
Высота : 516 пикселей
Соотношение сторон : 1,984
Режим частоты кадров : Постоянный
Частота кадров : 25,000 кадров/сек
Цветовое пространство : YUV
Субдискретизация насыщенности : 4:2:0
Битовая глубина : 8 бит
Тип развёртки : Прогрессивная
Бит/(Пиксели*Кадры) : 0.136
Размер потока : 623 Мбайт (88%)
Библиотека кодирования : x264 core 146 r2538 121396c
Настройки программы : cabac=1 / ref=10 / deblock=1:-3:-3 / analyse=0x3:0x133 / me=umh / subme=10 / psy=1 / psy_rd=1.00:0.06 / mixed_ref=1 / me_range=32 / chroma_me=1 / trellis=2 / 8x8dct=1 / cqm=0 / deadzone=21,11 / fast_pskip=0 / chroma_qp_offset=-3 / threads=6 / lookahead_threads=1 / sliced_threads=0 / nr=0 / decimate=0 / interlaced=0 / bluray_compat=0 / constrained_intra=0 / bframes=10 / b_pyramid=2 / b_adapt=2 / b_bias=0 / direct=3 / weightb=1 / open_gop=0 / weightp=2 / keyint=250 / keyint_min=25 / scenecut=40 / intra_refresh=0 / rc_lookahead=40 / rc=2pass / mbtree=0 / bitrate=1800 / ratetol=1.0 / qcomp=0.60 / qpmin=0 / qpmax=69 / qpstep=4 / cplxblur=20.0 / qblur=0.5 / vbv_maxrate=50000 / vbv_bufsize=62500 / nal_hrd=none / filler=0 / ip_ratio=1.40 / pb_ratio=1.30 / aq=1:1.00
Default : Да
Forced : Нет
Основные цвета : BT.709
Характеристики трансфера : BT.709
Коэффициенты матрицы : BT.709

Аудио
Идентификатор : 2
Формат : AC-3
Формат/Информация : Audio Coding 3
Расширение режима : CM (complete main)
Параметр Endianness формата : Big
Идентификатор кодека : A_AC3
Продолжительность : 49 м.
Вид битрейта : Постоянный
Битрейт : 192 Кбит/сек
Каналы : 2 канала
Расположение каналов : Front: L R
Частота : 48,0 КГц
Битовая глубина : 16 бит
Метод сжатия : С потерями
Размер потока : 67,9 Мбайт (10%)
Default : Да
Forced : Нет



Не забывайте говорить Спасибо. Не уходите с раздачи!   
Торрент: Зарегистрирован [27 апр 2018, 08:23]
Статус:
Проверен
 
.torrent скачан: 1336 раз
Хэш: 63adf66b06aede28a3cbc57dac0cb705c2c5be56
Размер: 5.76 ГБ (6 182 499 461 байт)
   Стать Автором раздачи
   
Цитата

Вернуться в Полицейский с Рублёвки

Кто сейчас на конференции

Сейчас эту тему просматривают: нет зарегистрированных пользователей и гости: 1