Blade Wars - Lords of the Ice: Canada Cup '91 Highlights /Кубок Канады 91 обзор всех игр

 Статистика раздачи 
Размер: 4.22 ГБ   |  Зарегистрирован: 25 апр 2018, 14:29   |   .torrent скачан: 1 раз
Сидеров: 1  [ 0 байт/сек ]     Личеров: 7  [ 0 байт/сек ]  
  
Аватара пользователя
 
Раздал: 311.05 МБ
Скачал: 1.9 ГБ
Ратио: 0.160
Сообщения: 244605
Стаж: 8 лет 6 месяцев 6 дней
Откуда: Rossiya

Blade Wars - Lords of the Ice: Canada Cup '91 Highlights /Кубок Канады 91 обзор всех игр
Язык комментариев: английский
Участники: СССР, Канада, США, ЧССР, Швеция, Финляндия
Продолжительность: 1 час
КУБОК КАНАДЫ - 91
Канада (Гамильтон, Торонто, Монреаль, Квебек-Сити, Саскатун) и США (Детройт, Чикаго).
31 августа – 16 сентября 1991.
Обзор матчей Кубка Канады 91 - официальное издание. Лучшие моменты...

Видео
Идентификатор : 224 (0xE0)
Формат : MPEG Video
Версия формата : Version 2
Профиль формата : Main@Main
Параметр BVOP формата : Да
Параметр матрицы формата : По умолчанию
Продолжительность : 14 м.
Вид битрейта : Переменный
Битрейт : 9300 Кбит/сек
Ширина : 720 пикс.
Высота : 480 пикс.
Соотношение сторон : 4:3
Частота кадров : 29,970 кадр/сек
Стандарт вещания : NTSC
Цветовое пространство : YUV
Подвыборка цветности : 4:2:0
Битовая глубина : 8 бит
Тип развёртки : Чересстрочная
Порядок развёртки : Верхнее поле первое
Метод сжатия : С потерями
Бит/(Пиксели*Кадры) : 0.898
Размер потока : 969 Мбайт (95%)
Аудио
Идентификатор : 189 (0xBD)-128 (0x80)
Формат : AC-3
Формат/Информация : Audio Coding 3
Расширение режима : CM (complete main)
Режим смешивания : DVD-Video
Продолжительность : 14 м.
Вид битрейта : Постоянный
Битрейт : 256 Кбит/сек
Каналы : 2 канала
Расположение каналов : Front: L R
Частота : 48,0 КГц
Битовая глубина : 16 бит
Метод сжатия : С потерями
Задержка видео : -80 мс.
Размер потока : 26,7 Мбайт (3%)
Не забывайте говорить Спасибо. Не уходите с раздачи!   
Торрент: Зарегистрирован [25 апр 2018, 14:29]
Статус:
Проверен
 
.torrent скачан: 1 раз
Хэш: 500892325100a6bcf74ec480b239f1f1e20c541a
Размер: 4.22 ГБ (4 527 654 912 байт)
   Стать Автором раздачи
   
Цитата

Вернуться в Хоккей

Кто сейчас на конференции

Сейчас эту тему просматривают: нет зарегистрированных пользователей и гости: 1