CHL '12, Мемориальный кубок 2012, все матчи/ 2012 Memorial Cup all games [18-27.05.2012, Хоккей, SD/Xvid/EN]

 Статистика раздачи 
Размер: 9.81 ГБ   |  Зарегистрирован: 25 апр 2018, 14:25   |   .torrent скачан: 0 раз
Сидеров: 3  [ 0 байт/сек ]     Личеров: 1  [ 0 байт/сек ]  
  
Аватара пользователя
 
Раздал: 311.05 МБ
Скачал: 1.9 ГБ
Ратио: 0.160
Сообщения: 244605
Стаж: 8 лет 6 месяцев 6 дней
Откуда: Rossiya

Вид спорта: Хоккей
Язык комментариев: Английский
Описание: Мемориальный кубок 2012
Участники: Edmonton Oil Kings, Shawinigan Cataractes, Saint John Sea Dogs, London Knights
Автор рипов: hockeyguy
Канал: Rogers Sportsnet
Качество: SD
Формат видео: AVI
Видео: Xvid, 640x480, 29,970 fps, 890 kbps
Аудио: MP3 stereo, 48,0 Hz, 128 kbps
Мемориальный кубок (англ. Memorial Cup) — трофей клубного юношеского чемпионата по хоккею с шайбой, вручаемый победителю Канадской хоккейной лиги. Разыгрывается ежегодно по круговой системе между четырьмя командами: действующим обладателем кубка и победителями трёх подлиг — Хоккейной лиги Онтарио, Главной юниорской хоккейной лиги Квебека и Западной хоккейной лиги.
General
Complete name : D:\Other_2011-2012\Memorial Cup 2012\CHL 2012-05-18 Edmonton vs. Shawinigan.avi
Format : AVI
Format/Info : Audio Video Interleave
File size : 1.13 GiB
Duration : 2h 35mn
Overall bit rate : 1 035 Kbps
Writing application : VirtualDubMod 1.5.10.2 (build 2542/release)
Writing library : VirtualDubMod build 2542/release
Video
ID : 0
Format : MPEG-4 Visual
Format profile : Advanced Simple@L5
Format settings, BVOP : 1
Format settings, QPel : No
Format settings, GMC : No warppoints
Format settings, Matrix : Default (H.263)
Muxing mode : Packed bitstream
Codec ID : XVID
Codec ID/Hint : XviD
Duration : 2h 35mn
Bit rate : 891 Kbps
Width : 640 pixels
Height : 480 pixels
Display aspect ratio : 4:3
Frame rate : 29.970 fps
Color space : YUV
Chroma subsampling : 4:2:0
Bit depth : 8 bits
Scan type : Progressive
Compression mode : Lossy
Bits/(Pixel*Frame) : 0.097
Stream size : 993 MiB (86%)
Writing library : XviD 1.2.1 (UTC 2008-12-04)
Audio
ID : 1
Format : MPEG Audio
Format version : Version 1
Format profile : Layer 3
Mode : Joint stereo
Mode extension : MS Stereo
Codec ID : 55
Codec ID/Hint : MP3
Duration : 2h 35mn
Bit rate mode : Variable
Bit rate : 128 Kbps
Channel(s) : 2 channels
Sampling rate : 48.0 KHz
Compression mode : Lossy
Stream size : 145 MiB (13%)
Alignment : Aligned on interleaves
Interleave, duration : 24 ms (0.72 video frame)
Interleave, preload duration : 511 ms
Writing library : LAME3.90.
Encoding settings : -m j -V 4 -q 2 -lowpass 17.6 --abr 128

МАТЧИ
Shawinigan Cataractes vs Edmonton Oil Kings
2:13:56
Shawinigan Cataractes vs Saint John Sea Dogs
2:20:24
Shawinigan Cataractes vs London Knights
3:47:27
Не забывайте говорить Спасибо. Не уходите с раздачи!   
Торрент: Зарегистрирован [25 апр 2018, 14:25]
Статус:
Проверен
 
.torrent скачан: 0 раз
Хэш: c53f7ecddf9571915d50cfe215c2b0689c5dbff5
Размер: 9.81 ГБ (10 528 761 856 байт)
   Стать Автором раздачи
   
Цитата

Вернуться в Хоккей

Кто сейчас на конференции

Сейчас эту тему просматривают: нет зарегистрированных пользователей и гости: 1