XXXI Летние Олимпийские Игры 2016 / Хоккей на траве / Мужчины / Матч за 3-е место / Нидерланды - Германия / BBC Olympics [18.08.2016, Хоккей на траве, SATRemux, 576i, MPEG2, EN]

 Статистика раздачи 
Размер: 2.72 ГБ   |  Зарегистрирован: 25 апр 2018, 14:23   |   .torrent скачан: 0 раз
Сидеров: 2  [ 0 байт/сек ]     Личеров: 1  [ 0 байт/сек ]  
  
Аватара пользователя
 
Раздал: 311.05 МБ
Скачал: 1.9 ГБ
Ратио: 0.160
Сообщения: 244605
Стаж: 8 лет 6 месяцев 9 дней
Откуда: Rossiya

XXXI Летние Олимпийские игры в Рио-де-Жанейро
Хоккей на траве / Мужчины / Матч за 3-е место
Нидерланды - Германия

Дата эфира: 18.08.2016
Вид спорта: Хоккей на траве
Комментарий: Профессиональный
Язык комментариев: Английский
Описание: XXXI Летние Олимпийские Игры 2016 / Хоккей на траве / Мужчины / Матч за 3-е место / Нидерланды - Германия.
За постер спасибо: Ларка Крофт
Автор рипа: ваще рутрекер.орг, но все-таки sanchez2011
Качество: SATRemux
Формат: MPG
Видео кодек: MPEG2
Аудио кодек: MP2
Видео: MPEG2 Video 720x576 (16:9) 25fps 3138kbps
Аудио: MPEG Audio 48000Hz stereo 192kbps
Код: Выделить всё
General
Complete name                            : W:\раздачи\ОИ 2016. Хоккей. Муж. Матч за 3-е место. Нидерланды - Германия.mpg
Format                                   : MPEG-PS
File size                                : 2.72 GiB
Duration                                 : 1h 50mn
Overall bit rate mode                    : Variable
Overall bit rate                         : 3 528 Kbps
Video
ID                                       : 224 (0xE0)
Format                                   : MPEG Video
Format version                           : Version 2
Format profile                           : Main@Main
Format settings, BVOP                    : Yes
Format settings, Matrix                  : Custom
Format settings, GOP                     : M=3, N=36
Format settings, picture structure       : Frame
Duration                                 : 1h 50mn
Bit rate mode                            : Variable
Bit rate                                 : 3 138 Kbps
Maximum bit rate                         : 15.0 Mbps
Width                                    : 720 pixels
Height                                   : 576 pixels
Display aspect ratio                     : 16:9
Frame rate                               : 25.000 fps
Standard                                 : PAL
Color space                              : YUV
Chroma subsampling                       : 4:2:0
Bit depth                                : 8 bits
Scan type                                : Interlaced
Scan order                               : Top Field First
Compression mode                         : Lossy
Bits/(Pixel*Frame)                       : 0.303
Time code of first frame                 : 00:00:00:00
Time code source                         : Group of pictures header
GOP, Open/Closed                         : Open
GOP, Open/Closed of first frame          : Closed
Stream size                              : 2.42 GiB (89%)
Audio #1
ID                                       : 192 (0xC0)
Format                                   : MPEG Audio
Format version                           : Version 1
Format profile                           : Layer 2
Mode                                     : Joint stereo
Mode extension                           : Intensity Stereo + MS Stereo
Duration                                 : 1h 50mn
Bit rate mode                            : Constant
Bit rate                                 : 192 Kbps
Channel(s)                               : 2 channels
Sampling rate                            : 48.0 KHz
Compression mode                         : Lossy
Delay relative to video                  : 19ms
Stream size                              : 151 MiB (5%)
Audio #2
ID                                       : 193 (0xC1)
Format                                   : MPEG Audio
Format version                           : Version 1
Format profile                           : Layer 2
Mode                                     : Joint stereo
Duration                                 : 1h 50mn
Bit rate mode                            : Constant
Bit rate                                 : 128 Kbps
Channel(s)                               : 2 channels
Sampling rate                            : 48.0 KHz
Compression mode                         : Lossy
Delay relative to video                  : 19ms
Stream size                              : 101 MiB (4%)
01:50:14
Нидерланды - Германия
1 - 1 в основное время
3 - 4 (по пенальти)
Не забывайте говорить Спасибо. Не уходите с раздачи!   
Торрент: Зарегистрирован [25 апр 2018, 14:23]
Статус:
Проверен
 
.torrent скачан: 0 раз
Хэш: 6b8c6b90bb385ad79be2682bd71026acbd1e3afa
Размер: 2.72 ГБ (2 917 343 232 байт)
   Стать Автором раздачи
   
Цитата
  • Похожие торренты
    Ответы
    Просмотры
    Последнее сообщение

Вернуться в Хоккей

Кто сейчас на конференции

Сейчас эту тему просматривают: нет зарегистрированных пользователей и гости: 1