XXXI Летние Олимпийские Игры 2016 / Хоккей на траве / Мужчины / 1/2 финала / Бельгия - Нидерланды / BBC Olympics [16.08.2016, Хоккей на траве, SATRemux, 576i, MPEG2, EN]

 Статистика раздачи 
Размер: 2.23 ГБ   |  Зарегистрирован: 25 апр 2018, 14:01   |   .torrent скачан: 0 раз
Сидеров: 2  [ 0 байт/сек ]     Личеров: 1  [ 0 байт/сек ]  
  
Аватара пользователя
 
Раздал: 311.05 МБ
Скачал: 1.9 ГБ
Ратио: 0.160
Сообщения: 244605
Стаж: 8 лет 6 месяцев 5 дней
Откуда: Rossiya

XXXI Летние Олимпийские игры в Рио-де-Жанейро
Хоккей на траве / Мужчины / 1/2 финала
Бельгия - Нидерланды

Дата эфира: 16.08.2016
Вид спорта: Хоккей на траве
Комментарий: Профессиональный
Язык комментариев: Английский
Описание: XXXI Летние Олимпийские Игры 2016 / Хоккей на траве / Мужчины / 1/2 финала / Бельгия - Нидерланды.
За постер спасибо: Ларка Крофт
Автор рипа: ваще рутрекер.орг, но все-таки sanchez2011
Качество: SATRemux
Формат: MPG
Видео кодек: MPEG2
Аудио кодек: MP2
Видео: MPEG2 Video 720x576 (16:9) 25fps 3198kbps
Аудио: MPEG Audio 48000Hz stereo 128kbps
Код: Выделить всё
General
Complete name                            : W:\раздачи\ОИ 2016. Хоккей. Муж. Полуфинал. Бельгия - Нидерланды.mpg
Format                                   : MPEG-PS
File size                                : 2.23 GiB
Duration                                 : 1h 34mn
Overall bit rate mode                    : Variable
Overall bit rate                         : 3 393 Kbps
Video
ID                                       : 224 (0xE0)
Format                                   : MPEG Video
Format version                           : Version 2
Format profile                           : Main@Main
Format settings, BVOP                    : Yes
Format settings, Matrix                  : Custom
Format settings, GOP                     : Variable
Format settings, picture structure       : Frame
Duration                                 : 1h 34mn
Bit rate mode                            : Variable
Bit rate                                 : 3 198 Kbps
Maximum bit rate                         : 15.0 Mbps
Width                                    : 720 pixels
Height                                   : 576 pixels
Display aspect ratio                     : 16:9
Frame rate                               : 25.000 fps
Standard                                 : PAL
Color space                              : YUV
Chroma subsampling                       : 4:2:0
Bit depth                                : 8 bits
Scan type                                : Interlaced
Scan order                               : Top Field First
Compression mode                         : Lossy
Bits/(Pixel*Frame)                       : 0.308
Time code of first frame                 : 00:00:00:00
Time code source                         : Group of pictures header
GOP, Open/Closed                         : Open
Stream size                              : 2.10 GiB (94%)
Audio
ID                                       : 192 (0xC0)
Format                                   : MPEG Audio
Format version                           : Version 1
Format profile                           : Layer 2
Mode                                     : Joint stereo
Duration                                 : 1h 34mn
Bit rate mode                            : Constant
Bit rate                                 : 128 Kbps
Channel(s)                               : 2 channels
Sampling rate                            : 48.0 KHz
Compression mode                         : Lossy
Delay relative to video                  : 12ms
Stream size                              : 86.2 MiB (4%)
01:34:07
Бельгия - Нидерланды
3 - 1
Не забывайте говорить Спасибо. Не уходите с раздачи!   
Торрент: Зарегистрирован [25 апр 2018, 14:01]
Статус:
Проверен
 
.torrent скачан: 0 раз
Хэш: 08213f0c54f83040e2b3806af2750974ecc3236c
Размер: 2.23 ГБ (2 395 631 616 байт)
   Стать Автором раздачи
   
Цитата
  • Похожие торренты
    Ответы
    Просмотры
    Последнее сообщение

Вернуться в Хоккей

Кто сейчас на конференции

Сейчас эту тему просматривают: нет зарегистрированных пользователей и гости: 1