Вечер-реквием памяти хоккеистов команды "Локомотив" [08.09.2011, Хоккей, SATRip]

 Статистика раздачи 
Размер: 1.05 ГБ   |  Зарегистрирован: 25 апр 2018, 14:00   |   .torrent скачан: 0 раз
Сидеров: 4  [ 0 байт/сек ]     Личеров: 0  [ 0 байт/сек ]  
  
Аватара пользователя
 
Раздал: 311.05 МБ
Скачал: 1.9 ГБ
Ратио: 0.160
Сообщения: 244605
Стаж: 8 лет 6 месяцев 8 дней
Откуда: Rossiya

Вечер-реквием памяти хоккеистов команды "Локомотив"
Вид спорта: Хоккей
Дата/Год выпуска: 08.09.2011
Язык комментариев: Русский
Описание: Вечер-реквием памяти хоккеистов команды "Локомотив" на "Минск Арена".
Архивные интервью с Александром Вьюхиным и Яном Мареком.
Автор рипа/записи: GREYCAT
Качество: SATRip
Формат видео: TS
Видео: MPEG Video at 2937 Кбит/сек 704 x 576 (1.333) at 25.000 fps
Аудио: MPEG Audio at 192 Кбит/сек 2 канала, 48,0 КГц
Продолжительность 45:38
Общее
Идентификатор : 13 (0xD)
Полное имя : H:\UPLOAD\Локо\Вечер-реквием.ts
Формат : MPEG-TS
Размер файла : 1,05 Гбайт
Продолжительность : 45 м.
Общий поток : 3294 Кбит/сек
Видео
Идентификатор : 321 (0x141)
Идентификатор меню : 13101 (0x332D)
Формат : MPEG Video
Версия формата : Version 2
Профиль формата : Main@Main
Параметр BVOP формата : Да
Параметр матрицы формата : Выборочная
Параметры GOP формата : M=3, N=24
Идентификатор кодека : 2
Продолжительность : 45 м.
Вид битрейта : Переменный
Битрейт : 2937 Кбит/сек
Номинальный битрейт : 15,0 Мбит/сек
Ширина : 704 пикс.
Высота : 576 пикс.
Соотношение сторон : 4:3
Частота кадров : 25,000 кадр/сек
Стандарт вещания : PAL
Цветовое пространство : YUV
Подвыборка цветности : 4:2:0
Битовая глубина : 8 бит
Тип развёртки : Прогрессивная
Порядок развёртки : Верхнее поле первое
Метод сжатия : С потерями
Бит/(Пиксели*Кадры) : 0.290
Размер потока : 959 Мбайт (89%)
Аудио
Идентификатор : 401 (0x191)
Идентификатор меню : 13101 (0x332D)
Формат : MPEG Audio
Версия формата : Version 1
Профиль формата : Layer 2
Идентификатор кодека : 4
Продолжительность : 45 м.
Вид битрейта : Постоянный
Битрейт : 192 Кбит/сек
Каналы : 2 канала
Частота : 48,0 КГц
Метод сжатия : С потерями
Задержка видео : 99 мс.
Размер потока : 62,7 Мбайт (6%)
Язык : Russian
Язык, дополнительно : Clean effects
Светлая память...
Не забывайте говорить Спасибо. Не уходите с раздачи!   
Торрент: Зарегистрирован [25 апр 2018, 14:00]
Статус:
Проверен
 
.torrent скачан: 0 раз
Хэш: 2883bcd0fccddde26f66d85c6737bc80655baf0b
Размер: 1.05 ГБ (1 127 746 952 байт)
   Стать Автором раздачи
   
Цитата

Вернуться в Хоккей

Кто сейчас на конференции

Сейчас эту тему просматривают: нет зарегистрированных пользователей и гости: 1