Молодежный чемпионат мира U20 2011. Выпуски новостей центральных каналов после финала. [06.01.2011, Хоккей, AVI]

 Статистика раздачи 
Размер: 235.07 МБ   |  Зарегистрирован: 25 апр 2018, 13:58   |   .torrent скачан: 0 раз
Сидеров: 1  [ 0 байт/сек ]     Личеров: 0  [ 0 байт/сек ]  
  
Аватара пользователя
 
Раздал: 311.05 МБ
Скачал: 1.9 ГБ
Ратио: 0.160
Сообщения: 244605
Стаж: 8 лет 6 месяцев 6 дней
Откуда: Rossiya

Молодежный чемпионат мира U20 2011. Россия-Канада. Выпуски новостей после финала.
https://fastpic.ru/view/13/2011/0108/bed190aada962a0222cf68feb3c014a8.jpg.html
Год выпуска: 2011
Страна: Россия
Вид спорта: Хоккей
Участники: Россия, Канада
Язык комментариев: Русский, английский
Описание: Главная новость дня на центральных каналах об игре нашей сборной в финале молодежного первенства мира 2011. 1 канал, ВГТРК, НТВ, ТВЦ, 5 канал, обзор матча от TSN.
Формат видео: AVI
Видео: MPEG4 Video (H264) 512x384 Bit rate 1530Kbps 25.00fps
Аудио: MPEG Audio Layer 3 44100Hz stereo 64kbps
Video
ID : 0
Format : AVC
Format/Info : Advanced Video Codec
Format profile : Baseline@L5.1
Format settings, CABAC : No
Format settings, ReFrames : 1 frame
Codec ID : H264
Duration : 3mn 47s
Bit rate : 1 530 Kbps
Nominal bit rate : 1 384 Kbps
Width : 512 pixels
Height : 384 pixels
Display aspect ratio : 4:3
Frame rate : 25.000 fps
Color space : YUV
Chroma subsampling : 4:2:0
Bit depth : 8 bits
Scan type : Progressive
Bits/(Pixel*Frame) : 0.311
Stream size : 41.4 MiB (95%)
Writing library : x264 core 57
Audio
ID : 1
Format : MPEG Audio
Format version : Version 1
Format profile : Layer 3
Mode : Joint stereo
Mode extension : MS Stereo
Codec ID : 55
Codec ID/Hint : MP3
Duration : 3mn 47s
Bit rate mode : Constant
Bit rate : 64.0 Kbps
Channel(s) : 2 channels
Sampling rate : 44.1 KHz
Stream size : 1.73 MiB (4%)
Alignment : Aligned on interleaves
Interleave, duration : 26 ms (0.65 video frame)
Формат видео: AVI
Видео: MPEG4 Video (H264) 640x480 Bit rate 2407Kbps 29.97fps
Аудио: MPEG Audio Layer 3 44100Hz stereo 64kbps
Video
ID : 0
Format : AVC
Format/Info : Advanced Video Codec
Format profile : Baseline@L5.1
Format settings, CABAC : No
Format settings, ReFrames : 1 frame
Codec ID : H264
Duration : 4mn 49s
Bit rate : 2 407 Kbps
Nominal bit rate : 2 140 Kbps
Width : 640 pixels
Height : 480 pixels
Display aspect ratio : 4:3
Frame rate : 29.970 fps
Color space : YUV
Chroma subsampling : 4:2:0
Bit depth : 8 bits
Scan type : Progressive
Bits/(Pixel*Frame) : 0.261
Stream size : 83.2 MiB (97%)
Writing library : x264 core 57
Audio
ID : 1
Format : MPEG Audio
Format version : Version 1
Format profile : Layer 3
Mode : Joint stereo
Mode extension : MS Stereo
Codec ID : 55
Codec ID/Hint : MP3
Duration : 4mn 49s
Bit rate mode : Constant
Bit rate : 64.0 Kbps
Channel(s) : 2 channels
Sampling rate : 44.1 KHz
Stream size : 2.21 MiB (3%)
Alignment : Aligned on interleaves
Interleave, duration : 26 ms (0.78 video frame)
Формат видео: AVI
Видео: MPEG4 Video (H264) 480x360 Bit rate 1221Kbps 25.00fps
Аудио: MPEG Audio Layer 3 48000Hz stereo 64kbps
Video
ID : 0
Format : AVC
Format/Info : Advanced Video Codec
Format profile : Baseline@L5.1
Format settings, CABAC : No
Format settings, ReFrames : 1 frame
Codec ID : H264
Duration : 4mn 2s
Bit rate : 1 221 Kbps
Width : 480 pixels
Height : 360 pixels
Display aspect ratio : 4:3
Frame rate : 25.000 fps
Color space : YUV
Chroma subsampling : 4:2:0
Bit depth : 8 bits
Scan type : Progressive
Bits/(Pixel*Frame) : 0.283
Stream size : 36.9 MiB (94%)
Writing library : x264 core 57
Audio
ID : 1
Format : MPEG Audio
Format version : Version 1
Format profile : Layer 3
Mode : Joint stereo
Mode extension : MS Stereo
Codec ID : 55
Codec ID/Hint : MP3
Duration : 4mn 2s
Bit rate mode : Constant
Bit rate : 64.0 Kbps
Channel(s) : 2 channels
Sampling rate : 48.0 KHz
Stream size : 1.85 MiB (5%)
Alignment : Aligned on interleaves
Interleave, duration : 24 ms (0.60 video frame)
Формат видео: AVI
Видео: MPEG4 Video (H264) 480x360 Bit rate 1639Kbps 15.00fps
Аудио: MPEG Audio Layer 3 22050Hz stereo 64kbps
Video
ID : 0
Format : AVC
Format/Info : Advanced Video Codec
Format profile : Baseline@L5.1
Format settings, CABAC : No
Format settings, ReFrames : 1 frame
Codec ID : H264
Duration : 23s 67ms
Bit rate : 1 639 Kbps
Nominal bit rate : 1 221 Kbps
Width : 480 pixels
Height : 360 pixels
Display aspect ratio : 4:3
Frame rate : 15.000 fps
Color space : YUV
Chroma subsampling : 4:2:0
Bit depth : 8 bits
Scan type : Progressive
Bits/(Pixel*Frame) : 0.632
Stream size : 4.51 MiB (95%)
Writing library : x264 core 57
Audio
ID : 1
Format : MPEG Audio
Format version : Version 2
Format profile : Layer 3
Mode : Joint stereo
Mode extension : MS Stereo
Codec ID : 55
Codec ID/Hint : MP3
Duration : 46s 80ms
Bit rate mode : Constant
Bit rate : 64.0 Kbps
Channel(s) : 2 channels
Sampling rate : 22.05 KHz
Stream size : 180 KiB (4%)
Alignment : Aligned on interleaves
Interleave, duration : 26 ms (0.39 video frame)
Формат видео: AVI
Видео: MPEG4 Video (H264) 384x288 Bit rate 909Kbps 25.00fps
Аудио: MPEG Audio Layer 3 44100Hz stereo 64kbps
Video
ID : 0
Format : AVC
Format/Info : Advanced Video Codec
Format profile : Baseline@L5.1
Format settings, CABAC : No
Format settings, ReFrames : 1 frame
Codec ID : H264
Duration : 3mn 11s
Bit rate : 909 Kbps
Nominal bit rate : 796 Kbps
Width : 384 pixels
Height : 288 pixels
Display aspect ratio : 4:3
Frame rate : 25.000 fps
Color space : YUV
Chroma subsampling : 4:2:0
Bit depth : 8 bits
Scan type : Progressive
Bits/(Pixel*Frame) : 0.329
Stream size : 20.7 MiB (92%)
Writing library : x264 core 57
Audio
ID : 1
Format : MPEG Audio
Format version : Version 1
Format profile : Layer 3
Mode : Joint stereo
Mode extension : MS Stereo
Codec ID : 55
Codec ID/Hint : MP3
Duration : 3mn 11s
Bit rate mode : Constant
Bit rate : 64.0 Kbps
Channel(s) : 2 channels
Sampling rate : 44.1 KHz
Stream size : 1.46 MiB (6%)
Alignment : Aligned on interleaves
Interleave, duration : 26 ms (0.65 video frame)
Формат видео: MP4
Видео: MPEG4 Video (H264) 480x270 Bit rate 539Kbps 29.92fps
Аудио: AAC 44100Hz mono 705kbps
Video
ID : 2
Format : AVC
Format/Info : Advanced Video Codec
Format profile : Baseline@L2.1
Format settings, CABAC : No
Format settings, ReFrames : 1 frame
Codec ID : avc1
Codec ID/Info : Advanced Video Coding
Duration : 6mn 5s
Bit rate mode : Variable
Bit rate : 539 Kbps
Maximum bit rate : 1 197 Kbps
Width : 480 pixels
Height : 270 pixels
Display aspect ratio : 16:9
Frame rate mode : Constant
Frame rate : 29.917 fps
Color space : YUV
Chroma subsampling : 4:2:0
Bit depth : 8 bits
Scan type : Progressive
Bits/(Pixel*Frame) : 0.139
Stream size : 23.5 MiB (90%)
Audio
ID : 1
Format : AAC
Format/Info : Advanced Audio Codec
Format version : Version 4
Format profile : LC
Format settings, SBR : No
Format settings, PS : Yes
Codec ID : 40
Duration : 6mn 5s
Bit rate mode : Variable
Bit rate : 56.9 Kbps
Maximum bit rate : 72.9 Kbps
Channel(s) : 2 channels
Channel positions : Front: L R
Sampling rate : 44.1 KHz
Stream size : 2.48 MiB (10%)
Не забывайте говорить Спасибо. Не уходите с раздачи!   
Торрент: Зарегистрирован [25 апр 2018, 13:58]
Статус:
Проверен
 
.torrent скачан: 0 раз
Хэш: 128db8a148ef0cc9a5e897d4d7b17bea451a5192
Размер: 235.07 МБ (246 484 390 байт)
   Стать Автором раздачи
   
Цитата

Вернуться в Хоккей

Кто сейчас на конференции

Сейчас эту тему просматривают: нет зарегистрированных пользователей и гости: 1