Церемония прощания с ХК "Локомотив" Ярославль (Арена 2000) [10.09.2011. Хоккей, SATRip]

 Статистика раздачи 
Размер: 11.64 ГБ   |  Зарегистрирован: 25 апр 2018, 13:52   |   .torrent скачан: 0 раз
Сидеров: 0  [ 0 байт/сек ]     Личеров: 0  [ 0 байт/сек ]  
  
Аватара пользователя
Я на сайте
 
Раздал: 311.05 МБ
Скачал: 1.9 ГБ
Ратио: 0.160
Сообщения: 243798
Стаж: 8 лет 6 месяцев 5 дней
Откуда: Rossiya

Церемония прощания с ХК "Локомотив" Ярославль (Арена 2000)
Вид спорта: Хоккей
Дата/Год выпуска: 10.09.0201
В студии ОРТ: Олег Мосалев и Андрей Юртаев.
Описание: И так всё ясно...
Автор рипа/записи: GREYCAT
Качество: SATRip
Формат видео: TS
Видео: MPEG Video at 4551 Кбит/сек 704 x 576 (1.333) at 25.000 fps
Аудио: MPEG Audio at 192 Кбит/сек 2 канала, 48,0 КГц
Продолжительность: 5 часов 33 минуты 57 сек.
Общее
Идентификатор : 13 (0xD)
Полное имя : H:\UPLOAD\Прощание\Прощание _fixed.ts
Формат : MPEG-TS
Размер файла : 11,6 Гбайт
Продолжительность : 5 ч. 33 м.
Общий поток : 4991 Кбит/сек
Видео
Идентификатор : 321 (0x141)
Идентификатор меню : 13101 (0x332D)
Формат : MPEG Video
Версия формата : Version 2
Профиль формата : Main@Main
Параметр BVOP формата : Да
Параметр матрицы формата : Выборочная
Параметры GOP формата : M=3, N=24
Идентификатор кодека : 2
Продолжительность : 33 с.
Вид битрейта : Переменный
Битрейт : 4551 Кбит/сек
Номинальный битрейт : 15,0 Мбит/сек
Ширина : 704 пикс.
Высота : 576 пикс.
Соотношение сторон : 4:3
Частота кадров : 25,000 кадр/сек
Стандарт вещания : PAL
Цветовое пространство : YUV
Подвыборка цветности : 4:2:0
Битовая глубина : 8 бит
Тип развёртки : Прогрессивная
Порядок развёртки : Верхнее поле первое
Метод сжатия : С потерями
Бит/(Пиксели*Кадры) : 0.449
Размер потока : 18,1 Мбайт (0%)
Аудио
Идентификатор : 401 (0x191)
Идентификатор меню : 13101 (0x332D)
Формат : MPEG Audio
Версия формата : Version 1
Профиль формата : Layer 2
Идентификатор кодека : 4
Продолжительность : 5 ч. 33 м.
Вид битрейта : Постоянный
Битрейт : 192 Кбит/сек
Каналы : 2 канала
Частота : 48,0 КГц
Метод сжатия : С потерями
Задержка видео : 83 мс.
Размер потока : 459 Мбайт (4%)
Язык : Russian
Язык, дополнительно : Clean effects
Не забывайте говорить Спасибо. Не уходите с раздачи!   
Торрент: Зарегистрирован [25 апр 2018, 13:52]
Статус:
Проверен
 
.torrent скачан: 0 раз
Хэш: 0f66084e096105081c74b18e73ecb464b4554b67
Размер: 11.64 ГБ (12 501 757 292 байт)
   Стать Автором раздачи
   
Цитата

Вернуться в Хоккей

Кто сейчас на конференции

Сейчас эту тему просматривают: нет зарегистрированных пользователей и гости: 1