Благотворительная церемония в память о ХК "Локомотив" (Арена 2000) [16.10.2011, хоккей, IPTVRip-AVC]

 Статистика раздачи 
Размер: 1.29 ГБ   |  Зарегистрирован: 25 апр 2018, 13:52   |   .torrent скачан: 0 раз
Сидеров: 0  [ 0 байт/сек ]     Личеров: 0  [ 0 байт/сек ]  
  
Аватара пользователя
 
Раздал: 311.05 МБ
Скачал: 1.9 ГБ
Ратио: 0.160
Сообщения: 187601
Стаж: 8 лет 1 месяц 3 дня
Откуда: Rossiya

Благотворительная церемония в память о ХК "ЛОКОМОТИВ"
"НАША КОМАНДА - НАВСЕГДА..."

Вид спорта: хоккей
Дата выпуска: 16 октября 2011 года
Продолжительность: 01:47:46
Язык комментариев: интершум
Описание: Благотворительная церемония о команде ХК "Локомотив", трагически погибшей 7 сентября 2011 года.
Игроки погибшего «Локомотива» вновь вернулись на лёд. Нет, увы, сверхъестественного в нашей жизни не бывает. В канун 40-го дня с момента страшной авиакатастрофы «ЯК-42» под сводами «Арены-2000» прошла благотворительная церемония под названием «Наша команда – навсегда…». Этот девиз, похоже, стал еще одним символом Ярославля, как медведь с секирой, что красуется на гербе региона, и хоккей, о котором в этот день говорили и в прошедшем, и в будущем времени.
Почтить скорбную дату в Ярославль приехали родственники многих ребят из того погибшего «Локомотива».
Разделить с ярославцами боль и скорбь в этот день изъявили желание многие деятели российской культуры и искусства. Все хотели своим творчеством почтить память ребят, но слишком затягивать церемонию организаторы не стали. Слишком больно было смотреть на пустой лёд и траурное облачение трибун. К слову будет сказать, что всем пришедшим организаторы выдали электрические свечи. 6000 штук зажглись в едином порыве, когда Юрий Башмет и камерный оркестр «Солисты Москвы» начали исполнение «Арии» Баха. Затем на сцену поднялся и известный российский саксафонист Игорь Бутман. Вместе с Юрием Башметом они исполнили еще несколько классических произведений. Зал плакал и хлопал.
А когда на огромном видеоэкране и на льду стала появляться проекция с лицами ребят и эпизодами из матчей погибшей команды показалось, что горе людей материализуется. 37 белых световых столбов устремились под своды «Арены» символизируя души погибших. Рассказ о всех ребятах из той команды у народного артиста страны Евгения Хорошевцева, читавшего закадровый текст, занял почти 40 минут. Всё это время зрители стояли и хлопали. Когда очередь дошла до Ивана Ткаченко трибуны взорвались овациями. Текст можно было не читать. Для Ярославля этот парень был любимчиком, а стал легендой, образцом настоящего Человека.
Впрочем, у этой церемонии была и еще одна задача – дать людям надежду. Надежду на то, что хоккей в Ярославле будет жить. В заключительном эпизоде на лед «Арены» одновременно высыпали 200 (!!!) мальчишек – воспитанников спортшкол «Локомотива». Болельщики встретили их такой поддержкой, которой позавидует иная команда КХЛ. Юные хоккеисты показали элементы тренировочного процесса, а затем встали единой цепью вдоль бортов ледовой коробки, на которые были нанесены фамилии их погибших кумиров. В этот момент от огня памяти был зажжен факел, который теперь каждый день будет символизировать нашу память о той команде. Факел этот решено сделать непременным атрибутом ярославского клуба. Теперь он будет появляться на льду «Арены» перед началом каждого домашнего матча нового «Локомотива».
ВРАТАРИ
01. Вьюхин Александр Евгеньевич, 38 лет
02. Лив Стефан Даниэль Патрик, 30 лет
ЗАЩИТНИКИ
03. Аникеенко Виталий Сергеевич, 24 года
04. Баландин Михаил Юрьевич, 31 год
05. Дитрих Роберт Генрихович, 25 лет
06. Калимулин Марат Натфуллович,23 года
07. Рахунек Карел, 32 года
08. Скрастиньш Карлис Мартинович, 37 лет
09. Траханов Павел Сергеевич, 33 года
10. Урычев Юрий Олегович, 20 лет
11. Шувалов Максим Алексеевич, 18 лет
12. Салей Руслан Альбертович, 36 лет
НАПАДАЮЩИЕ
13. Васюнов Александр Сергеевич, 23 года
14. Вашичек Йозеф, 30 лет
15. Галимов Александр Саидгереевич, 26 лет
16. Демитра Павол, 36 лет
17. Калянин Александр Игоревич, 23 года
18. Кирюхин Андрей Анатольевич, 24 года
19. Клюкин Никита Сергеевич, 21 год
20. Марек Ян, 31 год
21. Остапчук Сергей Игоревич, 21 год
22. Снурницын Павел Сергеевич, 19 лет
23. Собченко Даниил Евгеньевич, 20 лет
24. Ткаченко Иван Леонидович, 31 год
25. Чурилов Геннадий Станиславович, 24 года
26. Ярчук Артем Николаевич, 21 год
ТРЕНЕРЫ
27. МакКриммон Брэд Байрон (главный тренер)
28. Королев Игорь Борисович (старший тренер)
29. Карповцев Александр Георгиевич (тренер)
30. Кривоносов Николай Иванович (тренер)
31. Сидоров Евгений Владимирович (тренер-методист)
ТЕХНИЧЕСКИЙ ПЕРСОНАЛ
32. Бахвалов Юрий Алексеевич (техник)
33. Беляев Александр Владимирович (техник/массажист)
34. Зимин Андрей Валерьевич (врач)
35. Куннов Евгений Геннадьевич (массажист)
36. Кузнецов Вячеслав Михайлович (массажист)
37. Пискунов Владимир Леонидович (администратор)
Автор записи: x_man000
Автор рипа: AlexxFreeman
Качество: IPTVRip-AVC
Формат видео: MKV
Видео: MPEG4 Video (H264) 704x572@750x572 25fps ~1578kbps
Аудио: MP3 44100Hz mono 96kbps
Общее
Уникальный идентификатор : 171944250282724456041454627795104596543 (0x815B420ECF2B1E1599C61341E83E823F)
Полное имя : I:\DOC\161011.Blag.ceremoniya.v.pamyat.o.Loko.IPTVRip-AVC.mkv
Формат : Matroska
Размер файла : 1,29 Гбайт
Продолжительность : 1 ч. 47 м.
Общий поток : 1708 Кбит/сек
Название фильма : Благотворительная церемония в память о ХК Локомотив |rip by aLEXX|
Дата кодирования : UTC 2011-10-19 07:12:00
Программа кодирования : mkvmerge v4.9.1 ('Ich will') сборка от Jul 11 2011 23:53:15
Библиотека кодирования : libebml v1.2.1 + libmatroska v1.1.1
Видео
Идентификатор : 1
Формат : AVC
Формат/Информация : Advanced Video Codec
Профиль формата : High@L4.1
Параметр CABAC формата : Да
Параметр ReFrames формата : 14 кадров
Режим смешивания : Header stripping
Идентификатор кодека : V_MPEG4/ISO/AVC
Продолжительность : 1 ч. 47 м.
Битрейт : 1578 Кбит/сек
Ширина : 704 пикс.
Высота : 572 пикс.
Соотношение сторон : 4:3
Соотношение сторон в оригинале : 4:3
Частота кадров : 25,000 кадр/сек
Цветовое пространство : YUV
Подвыборка цветности : 4:2:0
Битовая глубина : 8 бит
Тип развёртки : Прогрессивная
Бит/(Пиксели*Кадры) : 0.157
Размер потока : 1,19 Гбайт (92%)
Заголовок : Благотворительная церемония в память о ХК Локомотив |rip by aLEXX|
Библиотека кодирования : x264 core 116 r2074 2641b9e
Настройки программы : cabac=1 / ref=14 / deblock=1:-3:-3 / analyse=0x3:0x133 / me=esa / subme=9 / psy=1 / psy_rd=1.00:0.00 / mixed_ref=1 / me_range=24 / chroma_me=1 / trellis=2 / 8x8dct=1 / cqm=0 / deadzone=21,11 / fast_pskip=0 / chroma_qp_offset=-2 / threads=2 / sliced_threads=0 / nr=0 / decimate=1 / interlaced=0 / bluray_compat=0 / constrained_intra=0 / bframes=11 / b_pyramid=2 / b_adapt=2 / b_bias=0 / direct=1 / weightb=1 / open_gop=0 / weightp=2 / keyint=250 / keyint_min=25 / scenecut=40 / intra_refresh=0 / rc_lookahead=50 / rc=crf / mbtree=1 / crf=18.1 / qcomp=0.60 / qpmin=10 / qpmax=51 / qpstep=4 / ip_ratio=1.40 / aq=1:1.00
Язык : Russian
Аудио
Идентификатор : 2
Формат : MPEG Audio
Версия формата : Version 1
Профиль формата : Layer 3
Режим смешивания : Header stripping
Идентификатор кодека : A_MPEG/L3
Идентификатор кодека/Подсказка : MP3
Продолжительность : 1 ч. 47 м.
Вид битрейта : Постоянный
Битрейт : 96,0 Кбит/сек
Каналы : 1 канал
Частота : 44,1 КГц
Метод сжатия : С потерями
Размер потока : 74,0 Мбайт (6%)
Заголовок : MP3 mono 96kbps
Библиотека кодирования : LAME3.98r
Настройки программы : -m m -V 4 -q 2 -lowpass 20.5 -b 96
Язык : Russian
Не забывайте говорить Спасибо. Не уходите с раздачи!   
Торрент: Зарегистрирован [25 апр 2018, 13:52] Для скачивания .torrent
необходима регистрация
Или скачать с помощью
MediaGet
Статус:
Проверен
 
.torrent скачан: 0 раз
Хэш: fd32348ffa3651b18d5441ac9b668dce83f24eec
Размер: 1.29 ГБ (1 380 464 756 байт)
   Стать Автором раздачи
   
Цитата

Вернуться в Хоккей

Кто сейчас на конференции

Сейчас эту тему просматривают: нет зарегистрированных пользователей и гости: 1