Мир Дикого запада / Westworld [02x01 из 10] (2018) WEB-DLRip 720p | ColdFilm

 Статистика раздачи 
Размер: 2.15 ГБ   |  Зарегистрирован: 23 апр 2018, 11:41   |   .torrent скачан: 0 раз
Сидеров: 1  [ 0 байт/сек ]     Личеров: 1  [ 0 байт/сек ]  
  
Аватара пользователя
Главный редактор
Главный редактор
Я на сайте
 
Раздал: 88.77 ТБ
Скачал: 3.78 ТБ
Ратио: 23.921
Сообщения: 232487
Стаж: 8 лет 11 месяцев 25 дней
Откуда: Санкт-Петербург

Информация о фильме
Название: Мир Дикого запада
Оригинальное название: Westworld
Год выпуска: 2018
Жанр: Фантастика, триллер, вестерн
Выпущено:
Режиссер: Джонатан Нолан, Джонни Кэмпбелл, Ричард Дж. Льюис
В ролях: Энтони Хопкинс, Эд Харрис, Ивэн Рэйчел Вуд, Джеймс Марсден, Тэнди Ньютон, Джеффри Райт, Тесса Томпсон, Джимми Симпсон, Родриго Санторо, Шеннон Мари Вудворд

О фильме:
В футуристическом парке развлечений андроиды на фоне для исторических декораций становятся рабами людей, выполняя рутинные задания, пока в один момент сбой в программе не превращает их в опасных убийц.


Страна: США
Студия: Bad Robot, Jerry Weintraub Productions, Kilter Films, Warner Bros. Television
Продолжительность: 1 x ~01:09:48
Перевод: Любительский многоголосый [ColdFilm]

Файл
Кодек: x264 (AVC)
Качество: WEB-DLRip 720p
Видео: 4000 Кбит/с, 1280x720, 25.000 fps
Аудио: Русский (AAC, 2 ch, 125 Кбит/с)


General
Unique ID : 224426469241762449287560815787809814019 (0xA8D6F73AE7E249878E6A45E3DA91B603)
Complete name : Westworld.S02E01.720p.ColdFilm.mkv
Format : Matroska
Format version : Version 2
File size : 2.15 GiB
Duration : 1 h 14 min
Overall bit rate : 4 153 kb/s
Encoded date : UTC 2018-04-23 05:16:40 / UTC 2017-11-20 18:25:40
Writing application : mkvmerge v3.3.0 ('Language') built on Mar 24 2010 14:59:24
Writing library : libebml v0.8.0 + libmatroska v0.9.0 / Lavf54.63.104

Video
ID : 1
Format : AVC
Format/Info : Advanced Video Codec
Format profile : Main@L3.1
Format settings : CABAC / 1 Ref Frames
Format settings, CABAC : Yes
Format settings, ReFrames : 1 frame
Codec ID : V_MPEG4/ISO/AVC
Duration : 1 h 14 min
Bit rate : 4 000 kb/s
Width : 1 280 pixels
Height : 720 pixels
Display aspect ratio : 16:9
Frame rate mode : Constant
Frame rate : 25.000 FPS
Color space : YUV
Chroma subsampling : 4:2:0
Bit depth : 8 bits
Scan type : Progressive
Bits/(Pixel*Frame) : 0.174
Stream size : 2.01 GiB (93%)
Writing library : x264 core 129
Encoding settings : cabac=1 / ref=1 / deblock=1:0:0 / analyse=0x1:0x131 / me=dia / subme=2 / psy=1 / psy_rd=1.00:0.00 / mixed_ref=0 / me_range=16 / chroma_me=1 / trellis=0 / 8x8dct=0 / cqm=0 / deadzone=21,11 / fast_pskip=1 / chroma_qp_offset=0 / threads=4 / lookahead_threads=1 / sliced_threads=0 / nr=0 / decimate=1 / interlaced=0 / bluray_compat=0 / constrained_intra=0 / bframes=0 / weightp=2 / keyint=250 / keyint_min=25 / scenecut=40 / intra_refresh=0 / rc_lookahead=40 / rc=abr / mbtree=1 / bitrate=4000 / ratetol=1.0 / qcomp=0.60 / qpmin=10 / qpmax=51 / qpstep=4 / ip_ratio=1.41 / aq=1:1.00
Default : No
Forced : No

Audio
ID : 2
Format : AC-3
Format/Info : Audio Coding 3
Codec ID : A_AC3
Duration : 1 h 14 min
Bit rate mode : Constant
Bit rate : 192 kb/s
Channel(s) : 2 channels
Channel positions : Front: L R
Sampling rate : 48.0 kHz
Frame rate : 31.250 FPS (1536 SPF)
Bit depth : 16 bits
Compression mode : Lossy
Stream size : 102 MiB (5%)
Service kind : Complete Main
Default : Yes
Forced : No


Релиз от:
Не забывайте говорить Спасибо. Не уходите с раздачи!   
Торрент: Зарегистрирован [23 апр 2018, 11:41]
Статус:
Проверен
 
.torrent скачан: 0 раз
Хэш: a721818a5ba88f85adee5f0e13f18552549edd42
Размер: 2.15 ГБ (2 307 192 233 байт)
   Стать Автором раздачи
   
Цитата
  • Похожие торренты
    Ответы
    Просмотры
    Последнее сообщение

Вернуться в Мир Дикого запада / Westworld

Кто сейчас на конференции

Сейчас эту тему просматривают: нет зарегистрированных пользователей и гости: 1