Плата за страх / Le salaire de la peur / The wages of fear (Анри-Жорж Клузо / Henri-Georges Clouzot) [1953, Франция, Италия, драма, триллер, BDRip 1080p] Dub (киноcтудия имени Горького) + MVO (Cinema Prestige) + Sub Rus, Eng + Original Fra

 Статистика раздачи 
Размер: 24.62 ГБ   |  Зарегистрирован: 15 апр 2018, 21:44   |   .torrent скачан: 0 раз
Сидеров: 6  [ 0 байт/сек ]     Личеров: 1  [ 0 байт/сек ]  
  
Аватара пользователя
 
Раздал: 256.39 ГБ
Скачал: 432.89 ГБ
Ратио: 0.672
Сообщения: 213358
Стаж: 8 лет 5 месяцев 2 дня

Плата за страх / Le salaire de la peur / The wages of fear
Страна: Франция, Италия
Студия: Filmsonor societe anonyme
Жанр: драма, триллер
Год выпуска: 1953
Продолжительность: 02:32:41
Перевод 1: Профессиональный (дублированный) - киностудия имени Горького
Перевод 2: Профессиональный (многоголосый закадровый) - Cinema Prestige
Перевод 3: Субтитры любительские (на непереведенные места) - sovsem-neduhoven
Перевод 4: Субтитры - Cinema Prestige
Субтитры: русские, английские
Оригинальная аудиодорожка: французский
Режиссер: Анри-Жорж Клузо / Henri-Georges Clouzot
В ролях: Ив Монтан, Шарль Ванель, Фолько Люлли, Петер Ван Эйк, Вера Клузо, Уильям Таббс, Дарио Морено, Йо Дест, Антонио Чента, Луиш ди Лима, Владимир Адлеров, Аркадий Вовси, Грегуар Громофф, Джозеф Пало-Фабре, Фаустини, Сегуна, Дарлинг Лежитимю, Рене Баранже, Пэт Херст, Эвелио Ларенагас, Джеронимо Митчелл, Рикардо, Франсуа Валорб, Рико Дзермано
Роли дублировали: Константин Карельских, Алексей Кельберер, Александр Шешко, Лев Свердлин, Галина Малькова, Владимир Адлеров, Аркадий Вовси
Описание: Псхиологическая драма по роману Жоржа Арно представляет страшноватую одиссею четырех отщепенцев, ведущих грузовики с нитроглицерином в "двух шагах" от смерти по извилистой дороге и труднопроходимой местности. Фильм, сам по себе, надо сказать, из разряда мощных и напряженных, поднимает еще и тему страха и его проявлений. В начале показывают группу отверженных в неописуемом столь мрачном местечке Центральной Америки, а некоторые сцены с грузовиками нагнетают слишком мощный саспенс в ситуации, которая итак уже до предела насыщена крутизной.
По сюжету несколько бродяг из разных стран, застрявших в небольшой тропической деревушке, страдающих от жары и скуки, думают о том, как бы отсюда поскорее соскочить. На сцене появляется бывший гангстер, которого сразу же просекает Марио, молодой француз. Шанс вырваться из этой дыры заключается в том, чтобы доставить два грузовика со взрывчаткой на пожар нефтяной скважины.
Доп. информация: В найденный в сети рип, сделанный с этого исходника - http://rutracker.org/forum/viewtopic.php?t=5477332 - и содержащий французский оригинал и английские субтитры, добавлены синхронизированный Нордером дубляж из релиза - http://rutracker.org/forum/viewtopic.php?t=762466, синхронизированная Нордером многоголоска из релиза - http://rutracker.org/forum/viewtopic.php?t=230836, набитые sovsem-neduhoven вручную под английский тайминг русские субтитры из релиза - http://rutracker.org/forum/viewtopic.php?t=4011688 и русские субтитры на непереведенные места. Оригинальный PCM-звук упакован во FLAC.
Оригинальные субтитры, судя по этому сообщению - http://rutracker.org/forum/viewtopic.php?p=54834085#54834085, на трекере отсутствуют, а вместо них в раздачи вставлены румынские субтитры с кривой кодировкой.
Вставки многоголоски в дубляж: 00:00:30 - 00:02:19, 00:04:58 - 00:05:09, 00:08:15 - 00:08:17, 00:51:44 - 00:52:13, 00:56:52-00:56:53, 00:58:04-00:58:08, 02:00:24 - 02:00:43, 02:10:30 - 02:11:00, 02:12:45 - 02:12:56, 02:13:17 - 02:13:32, 02:13:46 - 02:13:49
Вставки оригинала в дубляж и многоголоску: 00:43:32 - 00:44:12, 00:47:09 - 00:47:51, 01:22:56 - 01:22:57, 02:13:55 - 02:20:04, 02:22:18 - 02:22:50. На эти места набиты русские субтитры.
Сэмпл: https://cloud.mail.ru/public/DFAx/VqbnTPdyd
Тип релиза: BDRip 1080p
Контейнер: MKV
Видео: 22100 Кбит/сек, AVC 1478*1080 (4:3), 24,000 кадра/сек, CABAC
Аудио 1: Русский, 256 Кбит/сек, 48,0 КГц, 16 бит, 2 канала, AC-3 - дубляж
Аудио 2: Русский, 192 Кбит/сек, 48,0 КГц, 16 бит, 2 канала, AC-3 - многоголоска
Аудио 3: Французский, 565 Кбит/сек, 48,0 КГц, 24 бит, 1 канал, FLAC
Формат субтитров: softsub (SRT)
Код: Выделить всё
Общее
Уникальный идентификатор                 : 171602920670700267879897258303466727701 (0x811985356BF6765787F1941CAF236915)
Полное имя                               : I:\MONAR\Художественные фильмы\Зарубежное кино\Плата за страх (1953) BDRip 1080p.mkv
Формат                                   : Matroska
Версия формата                           : Version 4 / Version 2
Размер файла                             : 24,6 Гбайт
Продолжительность                        : 2 ч. 32 м.
Режим общего битрейта                    : Переменный
Общий поток                              : 23,1 Мбит/сек
Название фильма                          : Le salaire de la peur (1953)
Дата кодирования                         : UTC 2017-11-29 16:37:34
Программа кодирования                    : mkvmerge v18.0.0 ('Apricity') 64-bit
Библиотека кодирования                   : libebml v1.3.5 + libmatroska v1.4.8
Видео
Идентификатор                            : 1
Формат                                   : AVC
Формат/Информация                        : Advanced Video Codec
Профиль формата                          : High@L4.1
Настройки формата                        : CABAC / 5 Ref Frames
Параметр CABAC формата                   : Да
Параметр RefFrames формата               : 5 кадров
Идентификатор кодека                     : V_MPEG4/ISO/AVC
Продолжительность                        : 2 ч. 32 м.
Битрейт                                  : 22,1 Мбит/сек
Ширина                                   : 1478 пикселей
Высота                                   : 1080 пикселей
Соотношение сторон                       : 4:3
Режим частоты кадров                     : Постоянный
Частота кадров                           : 24,000 кадра/сек
Цветовое пространство                    : YUV
Субдискретизация насыщенности            : 4:2:0
Битовая глубина                          : 8 бит
Тип развёртки                            : Прогрессивная
Бит/(Пиксели*Кадры)                      : 0.576
Размер потока                            : 23,5 Гбайт (96%)
Библиотека кодирования                   : x264 core 152 r2851+58 429492e t_mod_Custom [8-bit@all X86_64]
Настройки программы                      : cabac=1 / ref=5 / deblock=1:-3:-3 / analyse=0x3:0x113 / me=umh / subme=10 / psy=1 / fade_compensate=0.00 / psy_rd=1.10:0.00 / mixed_ref=1 / me_range=32 / chroma_me=1 / trellis=2 / 8x8dct=1 / cqm=0 / deadzone=21,11 / fast_pskip=0 / chroma_qp_offset=-2 / threads=24 / lookahead_threads=4 / sliced_threads=0 / nr=0 / decimate=0 / interlaced=0 / bluray_compat=0 / constrained_intra=0 / fgo=0 / bframes=8 / b_pyramid=2 / b_adapt=2 / b_bias=0 / direct=3 / weightb=1 / open_gop=0 / weightp=2 / keyint=240 / keyint_min=24 / scenecut=40 / intra_refresh=0 / rc_lookahead=60 / rc=crf / mbtree=0 / crf=23.4000 / qcomp=0.75 / qpmin=0:0:0 / qpmax=69:69:69 / qpstep=4 / vbv_maxrate=62500 / vbv_bufsize=78125 / crf_max=0.0 / nal_hrd=none / filler=0 / ip_ratio=1.30 / pb_ratio=1.20 / aq=3:0.55 / aq-sensitivity=10.00 / aq-factor=1.00:1.00:1.00 / aq2=1:0.50 / aq2-sensitivity=15.00 / aq2-factor=1.00:1.00:1.00 / aq3=1:[0.50:0.50]:[0.50:0.50]:[0.50:0.50]:[0.50:0.50] / aq3-sensitivity=10.00 / aq3-factor=[1.00:1.00]:[1.00:1.00]:[1.00:1.00] / aq3-boundary=192:64:24
Язык                                     : French
Default                                  : Да
Forced                                   : Нет
Цветовой диапазон                        : Limited
Основные цвета                           : BT.709
Характеристики трансфера                 : BT.709
Коэффициенты матрицы                     : BT.709
Аудио #1
Идентификатор                            : 2
Формат                                   : AC-3
Формат/Информация                        : Audio Coding 3
Идентификатор кодека                     : A_AC3
Продолжительность                        : 2 ч. 32 м.
Вид битрейта                             : Постоянный
Битрейт                                  : 256 Кбит/сек
Каналы                                   : 2 канала
Расположение каналов                     : Front: L R
Частота                                  : 48,0 КГц
Частота кадров                           : 31,250 кадров/сек (1536 SPF)
Битовая глубина                          : 16 бит
Метод сжатия                             : С потерями
Размер потока                            : 280 Мбайт (1%)
Заголовок                                : Dub
Язык                                     : Russian
ServiceKind/String                       : Complete Main
Default                                  : Да
Forced                                   : Нет
Аудио #2
Идентификатор                            : 3
Формат                                   : AC-3
Формат/Информация                        : Audio Coding 3
Идентификатор кодека                     : A_AC3
Продолжительность                        : 2 ч. 32 м.
Вид битрейта                             : Постоянный
Битрейт                                  : 192 Кбит/сек
Каналы                                   : 2 канала
Расположение каналов                     : Front: L R
Частота                                  : 48,0 КГц
Частота кадров                           : 31,250 кадров/сек (1536 SPF)
Битовая глубина                          : 16 бит
Метод сжатия                             : С потерями
Размер потока                            : 210 Мбайт (1%)
Заголовок                                : MVO
Язык                                     : Russian
ServiceKind/String                       : Complete Main
Default                                  : Нет
Forced                                   : Нет
Аудио #3
Идентификатор                            : 4
Формат                                   : FLAC
Формат/Информация                        : Free Lossless Audio Codec
Идентификатор кодека                     : A_FLAC
Продолжительность                        : 2 ч. 32 м.
Вид битрейта                             : Переменный
Битрейт                                  : 565 Кбит/сек
Каналы                                   : 1 канал
Частота                                  : 48,0 КГц
Частота кадров                           : 11,719 кадров/сек (4096 SPF)
Битовая глубина                          : 24 бит
Размер потока                            : 617 Мбайт (2%)
Заголовок                                : original
Библиотека кодирования                   : libFLAC 1.2.1 (UTC 2007-09-17)
Язык                                     : French
Default                                  : Нет
Forced                                   : Нет
Текст #1
Идентификатор                            : 5
Формат                                   : UTF-8
Идентификатор кодека                     : S_TEXT/UTF8
Идентификатор кодека/Информация          : UTF-8 Plain Text
Продолжительность                        : 1 ч. 39 м.
Битрейт                                  : 3 бит/сек
ElementCount                             : 59
Размер потока                            : 2,73 Кбайт (0%)
Заголовок                                : srt
Язык                                     : Russian
Default                                  : Да
Forced                                   : Нет
Текст #2
Идентификатор                            : 6
Формат                                   : UTF-8
Идентификатор кодека                     : S_TEXT/UTF8
Идентификатор кодека/Информация          : UTF-8 Plain Text
Продолжительность                        : 2 ч. 29 м.
Битрейт                                  : 54 бит/сек
ElementCount                             : 1258
Размер потока                            : 59,8 Кбайт (0%)
Заголовок                                : srt
Язык                                     : Russian
Default                                  : Нет
Forced                                   : Нет
Текст #3
Идентификатор                            : 7
Формат                                   : UTF-8
Идентификатор кодека                     : S_TEXT/UTF8
Идентификатор кодека/Информация          : UTF-8 Plain Text
Продолжительность                        : 2 ч. 29 м.
Битрейт                                  : 26 бит/сек
ElementCount                             : 1254
Размер потока                            : 29,0 Кбайт (0%)
Заголовок                                : srt
Язык                                     : English
Default                                  : Нет
Forced                                   : Нет
Меню #1
00:00:00.000                             : en:Chapter 1
00:12:22.792                             : en:Chapter 2
00:26:32.708                             : en:Chapter 3
00:38:16.125                             : en:Chapter 4
00:53:23.458                             : en:Chapter 5
01:04:07.833                             : en:Chapter 6
01:25:23.583                             : en:Chapter 7
01:41:36.125                             : en:Chapter 8
02:00:44.542                             : en:Chapter 9
02:05:34.458                             : en:Chapter 10
02:19:50.750                             : en:Chapter 11
Меню #2
00:00:00.097                             : en:00:00:00.097
Не забывайте говорить Спасибо. Не уходите с раздачи!   
Торрент: Зарегистрирован [15 апр 2018, 21:44]
Статус:
Проверен
 
.torrent скачан: 0 раз
Хэш: 8324a05c96b196cf3fd9535e38905fa0fde5a5a9
Размер: 24.62 ГБ (26 433 036 468 байт)
   Стать Автором раздачи
   
Цитата
  • Похожие торренты
    Ответы
    Просмотры
    Последнее сообщение

Вернуться в Зарубежное кино (Сборники DVD, HD Video)

Кто сейчас на конференции

Сейчас эту тему просматривают: нет зарегистрированных пользователей и гости: 1