Последний корабль / The Last Ship [S04] (2017) HDTVRip | OMSKBIRD

 Статистика раздачи 
Размер: 6.01 ГБ   |  Зарегистрирован: 10 апр 2018, 23:24   |   .torrent скачан: 6 раз
Сидеров: 4  [ 0 байт/сек ]     Личеров: 10  [ 0 байт/сек ]  
  
Аватара пользователя
Главный редактор
Главный редактор
 
Раздал: 60.38 ТБ
Скачал: 3.58 ТБ
Ратио: 17.295
Сообщения: 204718
Стаж: 8 лет 5 месяцев
Откуда: Санкт-Петербург

Информация о фильме
Название: Последний корабль
Оригинальное название: The Last Ship
Год выхода: 2017
Жанр: Фантастика, боевик, триллер, драма
Режиссер: Джек Бендер, Пол Холахан, Серджо Мимика-Геззан
В ролях: Рона Митра, Эрик Дэйн, Адам Болдуин, Трэвис Ван Винкл, Джоко Симс, Чарльз Парнелл, Марисса Нейтлинг, Кристина Элмор, Джон Пайпер-Фергюсон, Кевин Майкл Мартин и другие
О фильме:
Глобальная пандемия уничтожает восемьдесят процентов населения планеты. Военный эсминец Соединенных Штатов отправляется в долгое путешествие с единственной задачей — выживать ровно столько, сколько потребуется для создания вакцины. И таким образом спасти человечество от вымирания



Страна: США
Продолжительность: ~00:43:00 серия
Перевод: Любительский (многоголосый закадровый) | OMSKBIRD records

Файл
Кодек: XviD
Качество: HDTVRip
Видео: 720x400 (1.80:1), 23.976 fps, ~1801 kbps avg, 0.26 bit/pixel
Звук:
Аудио rus: AC3, 48 kHz, 2 ch, 192 Kbps | OmskBird
Субтитры: отсутствуют
Реклама: присутствует
Семпл

Релиз-группа:
Роли озвучивали: Павел Ярощик, Константин Погодаев, Алексей Гнеушев, Ирина Воронова
Перевод: Егор Ярославцев
Звукорежиссер: Павел Квентов
Постер: Ксения Просветова
General
Complete name : G:FilmsThe.Last.Ship.S01.400p.HDTV.OmskBirdThe.Last.Ship.S04E01.HDTV.OmskBird.avi
Format : AVI
Format/Info : Audio Video Interleave
File size : 613 MiB
Duration : 42mn 47s
Overall bit rate : 2 003 Kbps
Writing application : VirtualDubMod 1.5.10.3 (build 2550/release)
Writing library : VirtualDubMod build 2550/release

Video
ID : 0
Format : MPEG-4 Visual
Format profile : Advanced Simple@L5
Format settings, BVOP : 1
Format settings, QPel : No
Format settings, GMC : No warppoints
Format settings, Matrix : Default (MPEG)
Codec ID : XVID
Codec ID/Hint : XviD
Duration : 42mn 47s
Bit rate : 1 802 Kbps
Width : 720 pixels
Height : 400 pixels
Display aspect ratio : 16:9
Frame rate : 23.976 (23976/1000) fps
Color space : YUV
Chroma subsampling : 4:2:0
Bit depth : 8 bits
Scan type : Progressive
Compression mode : Lossy
Bits/(Pixel*Frame) : 0.261
Stream size : 551 MiB (90%)
Writing library : XviD 73

Audio
ID : 1
Format : AC-3
Format/Info : Audio Coding 3
Mode extension : CM (complete main)
Format settings, Endianness : Big
Codec ID : 2000
Duration : 42mn 46s
Bit rate mode : Constant
Bit rate : 192 Kbps
Channel(s) : 2 channels
Channel positions : Front: L R
Sampling rate : 48.0 KHz
Frame rate : 31.250 fps (1536 spf)
Compression mode : Lossy
Stream size : 58.7 MiB (10%)
Alignment : Split accross interleaves
Interleave, duration : 42 ms (1.00 video frame)
Interleave, preload duration : 500 ms


Внимание! Раздача ведётся путём добавления новых серий; при каждом добавлении создётся новый торрент. Чтобы начать докачку новой серии, пользователям необходимо сделать следующее:
Остановить скачивание.
Удалить старый торрент у себя из клиента (старые серии удалять не надо).
Скачать новый торрент и запустить его у себя в клиенте вместо старого, при этом указать клиенту путь в старую папку куда и должно происходить скачивание новых серий.
Ваш клиент при этом должен произвести хеширование (проверку) старой папки (если не производит сам - помогите ему сделать это), и будет докачивать только те серии которых у вас ещё нет. Старые серии при этом не удаляются, а продолжают раздаваться!
Eсли вы уже удалили старые серии, то предотвратить повторную закачку старых серий можно, отжав галочку в соответсвующих местах при запуске нового торрента. По возможности, желательно не удалять старые серии как можно дольше чтобы релизёр не столько продолжал раздавать старые серии, а смог сконцентрироваться на новых.


Релиз от: OmskBird
Не забывайте говорить Спасибо. Не уходите с раздачи!   
Торрент: Зарегистрирован [10 апр 2018, 23:24] Для скачивания .torrent
необходима регистрация
Или скачать с помощью
MediaGet
Статус:
Проверен
 
.torrent скачан: 6 раз
Хэш: 44658a1ad8c5658283091c8fc539218148f6d4e9
Размер: 6.01 ГБ (6 454 331 392 байт)
   Стать Автором раздачи
   
Цитата
  • Похожие торренты
    Ответы
    Просмотры
    Последнее сообщение

Вернуться в Последний корабль / The Last Ship

Кто сейчас на конференции

Сейчас эту тему просматривают: нет зарегистрированных пользователей и гости: 1