Последний корабль / The Last Ship [S04] (2017) HDTV 720p | OMSKBIRD

 Статистика раздачи 
Размер: 9.4 ГБ   |  Зарегистрирован: 10 апр 2018, 23:22   |   .torrent скачан: 19 раз
Сидеров: 7  [ 0 байт/сек ]     Личеров: 13  [ 0 байт/сек ]  
  
Аватара пользователя
Главный редактор
Главный редактор
Я на сайте
 
Раздал: 58.72 ТБ
Скачал: 3.56 ТБ
Ратио: 16.896
Сообщения: 204566
Стаж: 8 лет 4 месяца 25 дней
Откуда: Санкт-Петербург

Информация о фильме
Название: Последний корабль
Оригинальное название: The Last Ship
Год выхода: 2017
Жанр: Фантастика, боевик, триллер, драма
Режиссер: Джек Бендер, Пол Холахан, Серджо Мимика-Геззан
В ролях: Рона Митра, Эрик Дэйн, Адам Болдуин, Трэвис Ван Винкл, Джоко Симс, Чарльз Парнелл, Марисса Нейтлинг, Кристина Элмор, Джон Пайпер-Фергюсон, Кевин Майкл Мартин и другие
О фильме:
Глобальная пандемия уничтожает восемьдесят процентов населения планеты. Военный эсминец Соединенных Штатов отправляется в долгое путешествие с единственной задачей — выживать ровно столько, сколько потребуется для создания вакцины. И таким образом спасти человечество от вымирания



Страна: США
Продолжительность: ~00:43:00 серия
Перевод: Любительский (многоголосый закадровый) | OMSKBIRD records

Файл
Кодек: AVC/H.264
Качество: HDTV 720p
Видео: H.264, 1280x720 (16:9), 23,976 fps, ~2950 kbps, 0.133 bit/pixel
Звук:
Аудио rus: AC3, 48 kHz, 2 ch, 192 Kbps | OmskBird
Субтитры: отсутствуют
Реклама: присутствует
Семпл

Релиз-группа:
Роли озвучивали: Павел Ярощик, Константин Погодаев, Алексей Гнеушев, Ирина Воронова
Перевод: Егор Ярославцев
Звукорежиссер: Павел Квентов
Постер: Ксения Просветова
01. In Medias Res
02. The Pillars of Hercules
03. Bread & Circuses
04. Nostos
05. Allegiance
06. Tempest
07. Feast
08. Somos la Sangre
09. Detect, Deceive, Destroy
10. Endgame
General
Complete name : G:FilmsThe.Last.Ship.S04.720p.HDTV.OmskBirdThe.Last.Ship.S04E01.720p.HDTV.OmskBird.mp4
Format : MPEG-4
Format profile : Base Media
Codec ID : isom (isom)
File size : 961 MiB
Duration : 42mn 47s
Overall bit rate : 3 141 Kbps
Encoded date : UTC 2017-08-22 11:47:04
Tagged date : UTC 2017-08-22 11:47:04
Writing application : Yamb 2.1.0.0 [http://yamb.unite-video.com]

Video
ID : 1
Format : AVC
Format/Info : Advanced Video Codec
Format profile : Main@L3.2
Format settings, CABAC : Yes
Format settings, ReFrames : 3 frames
Codec ID : avc1
Codec ID/Info : Advanced Video Coding
Duration : 42mn 47s
Bit rate : 2 947 Kbps
Maximum bit rate : 6 420 Kbps
Width : 1 280 pixels
Height : 720 pixels
Display aspect ratio : 16:9
Frame rate mode : Constant
Frame rate : 23.976 (24000/1001) fps
Standard : PAL
Color space : YUV
Chroma subsampling : 4:2:0
Bit depth : 8 bits
Scan type : Progressive
Bits/(Pixel*Frame) : 0.133
Stream size : 902 MiB (94%)
Language : English
Encoded date : UTC 2017-08-21 04:59:20
Tagged date : UTC 2017-08-22 11:47:30
Color range : Limited
Color primaries : BT.709
Transfer characteristics : BT.709
Matrix coefficients : BT.709

Audio
ID : 2
Format : AC-3
Format/Info : Audio Coding 3
Mode extension : CM (complete main)
Format settings, Endianness : Big
Codec ID : ac-3
Duration : 42mn 46s
Bit rate mode : Constant
Bit rate : 192 Kbps
Channel(s) : 2 channels
Channel positions : Front: L R
Sampling rate : 48.0 KHz
Frame rate : 31.250 fps (1536 spf)
Bit depth : 16 bits
Compression mode : Lossy
Stream size : 58.7 MiB (6%)
Encoded date : UTC 2017-08-22 11:47:29
Tagged date : UTC 2017-08-22 11:47:30


Внимание! Раздача ведётся путём добавления новых серий; при каждом добавлении создётся новый торрент. Чтобы начать докачку новой серии, пользователям необходимо сделать следующее:
Остановить скачивание.
Удалить старый торрент у себя из клиента (старые серии удалять не надо).
Скачать новый торрент и запустить его у себя в клиенте вместо старого, при этом указать клиенту путь в старую папку куда и должно происходить скачивание новых серий.
Ваш клиент при этом должен произвести хеширование (проверку) старой папки (если не производит сам - помогите ему сделать это), и будет докачивать только те серии которых у вас ещё нет. Старые серии при этом не удаляются, а продолжают раздаваться!
Eсли вы уже удалили старые серии, то предотвратить повторную закачку старых серий можно, отжав галочку в соответсвующих местах при запуске нового торрента. По возможности, желательно не удалять старые серии как можно дольше чтобы релизёр не столько продолжал раздавать старые серии, а смог сконцентрироваться на новых.


Релиз от: OmskBird
Не забывайте говорить Спасибо. Не уходите с раздачи!   
Торрент: Зарегистрирован [10 апр 2018, 23:22] Для скачивания .torrent
необходима регистрация
Или скачать с помощью
MediaGet
Статус:
Проверен
 
.torrent скачан: 19 раз
Хэш: ef02a53956b9fbe813fa03ee856afd81d42066c0
Размер: 9.4 ГБ (10 091 739 942 байт)
   Стать Автором раздачи
   
Цитата
  • Похожие торренты
    Ответы
    Просмотры
    Последнее сообщение

Вернуться в Последний корабль / The Last Ship

Кто сейчас на конференции

Сейчас эту тему просматривают: нет зарегистрированных пользователей и гости: 1