Последний корабль / The Last Ship [S03] (2016) WEB-DL 720p | LostFilm

 Статистика раздачи 
Размер: 17.69 ГБ   |  Зарегистрирован: 10 апр 2018, 23:21   |   .torrent скачан: 49258 раз
Сидеров: 5  [ 0 байт/сек ]     Личеров: 4  [ 0 байт/сек ]  
  
Аватара пользователя
Главный редактор
Главный редактор
 
Раздал: 60.38 ТБ
Скачал: 3.58 ТБ
Ратио: 17.293
Сообщения: 204718
Стаж: 8 лет 5 месяцев
Откуда: Санкт-Петербург

Название: Последний корабль
Оригинальное название: The Last Ship

Год выхода: 2016

Страна: США
Студия: Channel Road Productions, Platinum Dunes, TNT Originals

Продолжительность: 13 x ~ 42:00
Жанр: фантастика, боевик, триллер, драма, военный, ...

Режиссер: Джек Бендер, Пол Холахан, Майкл Кэтлман, ...

В ролях: Рона Митра, Эрик Дэйн, Адам Болдуин, Михаэлла МакМанус, Марисса Нейтлинг, Трэвис Ван Винкл, Чарльз Парнелл, Кристина Элмор, Джоко Симс, Джон Пайпер-Фергюсон, Кевин Майкл Мартин, ...

Перевод: Профессиональный (многоголосный, закадровый) LostFilm

О фильме: Когда глобальная пандемия уничтожает восемьдесят процентов населения планеты, на плечи экипажа одинокого эсминца ложится задача по спасению человечества от вымирания…

Кодек: MPEG-4 AVC
Качество: WEB-DL 720p
Видео: 1280x720, ~3900 kbps, 23,976 fps
Аудио #1: AC-3, 2 ch, 224 kbps (Rus) - LostFilm
Аудио #2: AC-3, 6 ch, 384 kbps (Eng)
Субтитры: Английские

Общее
Уникальный идентификатор : 235012627222547692928150200988973394453 (0xB0CDC91D961B58FE8762B69076ABEA15)
Полное имя : The Last Ship E01 S03 2016 WEB-DL 720p LostFilm.mkv
Формат : Matroska
Версия формата : Version 2
Размер файла : 1,36 Гбайт
Продолжительность : 41 м.
Общий поток : 4647 Кбит/сек
Дата кодирования : UTC 2016-09-15 22:01:38
Программа кодирования : mkvmerge v4.0.0 ('The Stars were mine') сборка от Jun 6 2010 16:18:42
Библиотека кодирования : libebml v1.0.0 + libmatroska v1.0.0

Видео
Идентификатор : 1
Формат : AVC
Формат/Информация : Advanced Video Codec
Профиль формата : High@L3.1
Параметр CABAC формата : Нет
Параметр ReFrames формата : 2 кадра
Идентификатор кодека : V_MPEG4/ISO/AVC
Продолжительность : 41 м.
Битрейт : 3947 Кбит/сек
Ширина : 1280 пикселей
Высота : 720 пикселей
Соотношение сторон : 16:9
Режим частоты кадров : Постоянный
Частота кадров : 23,976 (24000/1001) кадра/сек
Цветовое пространство : YUV
Субдискретизация насыщенности : 4:2:0
Битовая глубина : 8 бит
Тип развёртки : Прогрессивная
Бит/(Пиксели*Кадры) : 0.179
Размер потока : 1,15 Гбайт (85%)
Язык : English
Default : Нет
Forced : Нет
Цветовой диапазон : Limited
Основные цвета : BT.709
Характеристики трансфера : BT.709
Коэффициенты матрицы : BT.709

Аудио #1
Идентификатор : 2
Формат : AC-3
Формат/Информация : Audio Coding 3
Расширение режима : CM (complete main)
Параметр Endianness формата : Big
Идентификатор кодека : A_AC3
Продолжительность : 41 м.
Вид битрейта : Постоянный
Битрейт : 224 Кбит/сек
Каналы : 2 канала
Расположение каналов : Front: L R
Частота : 48,0 КГц
Частота кадров : 31,250 кадров/сек (1536 spf)
Метод сжатия : С потерями
Размер потока : 66,9 Мбайт (5%)
Заголовок : LostFilm
Язык : Russian
Default : Нет
Forced : Нет

Аудио #2
Идентификатор : 3
Формат : AC-3
Формат/Информация : Audio Coding 3
Расширение режима : CM (complete main)
Параметр Endianness формата : Big
Идентификатор кодека : A_AC3
Продолжительность : 41 м.
Вид битрейта : Постоянный
Битрейт : 384 Кбит/сек
Каналы : 6 каналов
Расположение каналов : Front: L C R, Side: L R, LFE
Частота : 48,0 КГц
Частота кадров : 31,250 кадров/сек (1536 spf)
Метод сжатия : С потерями
Размер потока : 115 Мбайт (8%)
Язык : English
Default : Нет
Forced : Нет

Текст
Идентификатор : 4
Формат : UTF-8
Идентификатор кодека : S_TEXT/UTF8
Идентификатор кодека/Информация : UTF-8 Plain Text
Язык : English
Default : Нет
Forced : Нет


Не забывайте говорить Спасибо. Не уходите с раздачи!   
Торрент: Зарегистрирован [10 апр 2018, 23:21] Для скачивания .torrent
необходима регистрация
Или скачать с помощью
MediaGet
Статус:
Проверен
 
.torrent скачан: 49258 раз
Хэш: b364edf2cfcf8bc0e5516f7de14d73f605b82830
Размер: 17.69 ГБ (18 991 117 442 байт)
   Стать Автором раздачи
   
Цитата

Вернуться в Последний корабль / The Last Ship

Кто сейчас на конференции

Сейчас эту тему просматривают: нет зарегистрированных пользователей и гости: 1