В объезд / The Detour [S02] (2017) HDTVRip 720р | AMS

 Статистика раздачи 
Размер: 8.01 ГБ   |  Зарегистрирован: 09 апр 2018, 11:10   |   .torrent скачан: 0 раз
Сидеров: 4  [ 0 байт/сек ]     Личеров: 1  [ 0 байт/сек ]  
  
Аватара пользователя
Главный редактор
Главный редактор
Я на сайте
 
Раздал: 88.38 ТБ
Скачал: 3.78 ТБ
Ратио: 23.815
Сообщения: 227031
Стаж: 8 лет 11 месяцев 21 день
Откуда: Санкт-Петербург
СообщениеДобавлено: 20 апр 2017, 11:30


В объезд / Та ещё поездка / The Detour

Страна: США
Производство: TBS Productions Inc.
Год выпуска: 2017
Сезон: 2
Жанр: комедия
Продолжительность: 12х ~00:22:00

Режиссеры: Бреннан Шрофф, Джефф Томсич, Дэйл Штерн
Авторы сценария: Саманта Би, Джейсон Джонс, Джесс Лочер

В ролях: Джейсон Джонс, Натали Зи, Эшли Герасимович, Лайам Кэрролл, Даниэлла Пинеда, Мэри Грилл, Фил Ривз, Джефф Парис, Мамуду Ати

Описание: История небольшой семьи с двумя детьми, которая решила отправиться в долгое путешествие от родного дома прямиком до Флориды. Путь непростой, но герои всегда оптимистичны — они верят в себя, а их путь благоволит им. Кажется, что впереди их ждет долгая дорога, полная интересных открытий. Однако поездка оказывается не такой удачной! Вскоре положительный настрой сменяется упадническими чувствами, ведь героев начинают преследовать неудачи… одна за другой. И отбоя от них нет!



Перевод: Любительский (многоголосый, закадровый) | студия AMS
Субтитры: нет


Качество: WEBRip 720p / серии: 2-5
Качество: HDTVRip 720 / серии: 1, 6-12
Формат: МКV
Видео кодек: AVC
Аудио кодек: АС3
Видео: 1280x720 (16:9), 23.976 fps, MPEG-4 AVC ~3 500 kbps avg
Аудио №1: 48.0 kHz, AC3 Dolby Digital, 2/0 (L,R) ch, ~384 kbps | RUS / AMS
Аудио №2: 48.0 kHz, AC3 Dolby Digital, 3/2 (L,C,R,l,r) + LFE ch, ~384/640 kbps | ENG

Дата премьеры (мир): 21 февраля 2017



General
Unique ID : 196625226839642321715476303106541457790 (0x93ECA426F1B15A82C53EA00823BD917E)
Complete name : The.Detour.S02E04.720p.WEBRip.AMS.mkv
Format : Matroska
Format version : Version 4 / Version 2
File size : 734 MiB
Duration : 21mn 5s
Overall bit rate : 4 870 Kbps
Encoded date : UTC 2017-04-06 09:52:11
Writing application : mkvmerge v8.2.0 ('World of Adventure') 64bit
Writing library : libebml v1.3.1 + libmatroska v1.4.2

Video
ID : 1
Format : AVC
Format/Info : Advanced Video Codec
Format profile : High@L4.1
Format settings, CABAC : Yes
Format settings, ReFrames : 9 frames
Codec ID : V_MPEG4/ISO/AVC
Duration : 21mn 4s
Bit rate : 3 844 Kbps
Width : 1 280 pixels
Height : 720 pixels
Display aspect ratio : 16:9
Frame rate mode : Constant
Frame rate : 23.976 (24000/1001) fps
Color space : YUV
Chroma subsampling : 4:2:0
Bit depth : 8 bits
Scan type : Progressive
Bits/(Pixel*Frame) : 0.174
Stream size : 580 MiB (79%)
Writing library : x264 core 148 r2744kMod b97ae06
Encoding settings : cabac=1 / ref=9 / deblock=1:-3:-3 / analyse=0x3:0x113 / me=umh / subme=10 / psy=1 / fade_compensate=0.00 / psy_rd=1.00:0.00 / mixed_ref=1 / me_range=32 / chroma_me=1 / trellis=2 / 8x8dct=1 / cqm=0 / deadzone=21,11 / fast_pskip=0 / chroma_qp_offset=-2 / threads=12 / lookahead_threads=2 / sliced_threads=0 / nr=0 / decimate=1 / interlaced=0 / bluray_compat=0 / constrained_intra=0 / bframes=9 / b_pyramid=2 / b_adapt=2 / b_bias=0 / direct=3 / weightb=1 / open_gop=0 / weightp=2 / keyint=250 / keyint_min=23 / scenecut=40 / intra_refresh=0 / rc_lookahead=40 / rc=crf / mbtree=0 / crf=18.0000 / qcomp=0.60 / qpmin=0 / qpmax=69 / qpstep=4 / vbv_maxrate=50000 / vbv_bufsize=65000 / crf_max=0.0 / nal_hrd=none / filler=0 / ip_ratio=1.30 / pb_ratio=1.20 / aq=3:0.80
Language : English
Default : Yes
Forced : No

Audio #1
ID : 2
Format : AC-3
Format/Info : Audio Coding 3
Mode extension : CM (complete main)
Format settings, Endianness : Big
Codec ID : A_AC3
Duration : 21mn 4s
Bit rate mode : Constant
Bit rate : 384 Kbps
Channel(s) : 2 channels
Channel positions : Front: L R
Sampling rate : 48.0 KHz
Frame rate : 31.250 fps (1536 spf)
Compression mode : Lossy
Stream size : 57.9 MiB (8%)
Language : Russian
Default : Yes
Forced : No

Audio #2
ID : 3
Format : E-AC-3
Format/Info : Audio Coding 3
Format settings, Endianness : Big
Codec ID : A_EAC3
Duration : 21mn 5s
Bit rate mode : Constant
Bit rate : 640 Kbps
Channel(s) : 6 channels
Channel positions : Front: L C R, Side: L R, LFE
Sampling rate : 48.0 KHz
Frame rate : 187.500 fps (256 spf)
Compression mode : Lossy
Stream size : 96.5 MiB (13%)
Language : English
Default : No
Forced : No
Не забывайте говорить Спасибо. Не уходите с раздачи!   
Торрент: Зарегистрирован [09 апр 2018, 11:10]
Статус:
Проверен
 
.torrent скачан: 0 раз
Хэш: 7ef41e05179935ba6631544d2c9200296864dcc9
Размер: 8.01 ГБ (8 600 022 810 байт)
   Стать Автором раздачи
   
Цитата
  • Похожие торренты
    Ответы
    Просмотры
    Последнее сообщение

Вернуться в В объезд / The Detour

Кто сейчас на конференции

Сейчас эту тему просматривают: нет зарегистрированных пользователей и гости: 1