Viva la Vulva: Women's Sex Organs Revealed / Виват вульва: объяснение женских половых органов (Betty Dodson) [1998, гинекология, DVDRip]

 Статистика раздачи 
Размер: 474.4 МБ   |  Зарегистрирован: 04 апр 2018, 14:42   |   .torrent скачан: 3 раз
Сидеров: 11  [ 0 байт/сек ]     Личеров: 3  [ 0 байт/сек ]  
  
Аватара пользователя
 
Раздал: 256.39 ГБ
Скачал: 432.89 ГБ
Ратио: 0.672
Сообщения: 213353
Стаж: 9 лет 25 дней

Viva la Vulva: Women's Sex Organs Revealed / Виват вульва: объяснение женских половых органов
Дата/Год выпуска: 1998
Страна: США
Жанр: гинекология
Продолжительность: 0:49:28
Перевод: Отсутствует
Русские субтитры: нет
Оригинальная аудиодорожка: английский
Режиссер: Betty Dodson
Описание: Автор рассказывает об устройстве женских половых органов.
качество: DVDRip
формат: AVI
Видео: DivX 5, 720x480, 3:2, 1201kbps, 29.97fps
Аудио: MP3, 128kbps, 48kHz, stereo
Код: Выделить всё
General
Complete name                            : C:\Users\Алексей\Documents\Загрузки\Vi_La_Vu.Wo.Se.avi
Format                                   : DivX
Format/Info                              : Hack of AVI
File size                                : 474 MiB
Duration                                 : 49mn 28s
Overall bit rate                         : 1 340 Kbps
Video
ID                                       : 0
Format                                   : MPEG-4 Visual
Format settings, BVOP                    : 3
Format settings, QPel                    : No
Format settings, GMC                     : No warppoints
Format settings, Matrix                  : Default (H.263)
Muxing mode                              : Packed bitstream
Codec ID                                 : DX50
Codec ID/Hint                            : DivX 5
Duration                                 : 49mn 28s
Bit rate                                 : 1 201 Kbps
Width                                    : 720 pixels
Height                                   : 480 pixels
Display aspect ratio                     : 3:2
Frame rate                               : 29.970 fps
Standard                                 : NTSC
Color space                              : YUV
Chroma subsampling                       : 4:2:0
Bit depth                                : 8 bits
Scan type                                : Interlaced
Scan order                               : Bottom Field First
Compression mode                         : Lossy
Bits/(Pixel*Frame)                       : 0.116
Stream size                              : 425 MiB (90%)
Title                                    : Video
Writing library                          : DivX 6.2.5 (UTC 2006-06-16)
Audio
ID                                       : 1
Format                                   : MPEG Audio
Format version                           : Version 1
Format profile                           : Layer 3
Codec ID                                 : 55
Codec ID/Hint                            : MP3
Duration                                 : 49mn 28s
Bit rate mode                            : Constant
Bit rate                                 : 128 Kbps
Channel(s)                               : 2 channels
Sampling rate                            : 48.0 KHz
Compression mode                         : Lossy
Stream size                              : 45.3 MiB (10%)
Alignment                                : Split accross interleaves
Interleave, duration                     : 33 ms (1.00 video frame)
Interleave, preload duration             : 50 ms
Title                                    : Audio
Видеофильм для лиц старше 16 лет!
Не забывайте говорить Спасибо. Не уходите с раздачи!   
Торрент: Зарегистрирован [04 апр 2018, 14:42]
Статус:
Проверен
 
.torrent скачан: 3 раз
Хэш: 973665f8e56382b47fb91b4d1369f2e091dc92c1
Размер: 474.4 МБ (497 442 552 байт)
   Стать Автором раздачи
   
Цитата
  • Похожие торренты
    Ответы
    Просмотры
    Последнее сообщение

Вернуться в Документальные фильмы и телепередачи по медицине

Кто сейчас на конференции

Сейчас эту тему просматривают: нет зарегистрированных пользователей и гости: 1