Пространство / The Expanse [S02] (2017) WEBRip | OmskBird

 Статистика раздачи 
Размер: 8.23 ГБ   |  Зарегистрирован: 03 апр 2018, 23:31   |   .torrent скачан: 0 раз
Сидеров: 0  [ 0 байт/сек ]     Личеров: 0  [ 0 байт/сек ]  
  
Аватара пользователя
Главный редактор
Главный редактор
 
Раздал: 60.38 ТБ
Скачал: 3.58 ТБ
Ратио: 17.293
Сообщения: 204718
Стаж: 8 лет 5 месяцев
Откуда: Санкт-Петербург

Информация о фильме
Название: Пространство
Оригинальное название: The Expanse
Год выхода: 2017
Жанр: Фантастика, детектив
Режиссер: Роберт Либерман, Терри МакДонаф, Джефф Вулнаф
В ролях: Томас Джейн, Стивен Стрейт, Кэс Анвар, Доминик Типпер, Уэс Чэтэм, Шохре Агдашлу, Афина Карканис, Чад Л. Коулмэн, Дрю Кэрримор, Илайс Туфексис, Паоло Костанзо, Флоренс Ванида Фэйвр, Джей Эрнандес, Джейн Моффат, Шон Дойл, Джаред Харрис, Россиф Сазерленд, Джонатан Бэнкс

О фильме:
Через двести лет от дня сегодняшнего некий сыщик, привыкший всё доводить до конца при любых обстоятельствах, в рамках расследования дела об исчезновении молодой женщины оказывается на борту звездолета, капитан которого решает помочь детективу в его непростом деле. Величайший заговор в истории человечества гарантируется, как и его непременное раскрытие.



Страна: США, Alcon Entertainment, Sean Daniel Company
Продолжительность: ~ 00:45:00 серия
Перевод: Любительский (многоголосый закадровый) | OMSKBIRD records

Файл
Кодек: XviD
Качество: WEBRip
Видео: 720x400 (1.80:1), 23.976 fps, ~1903 kbps avg, 0.28 bit/pixel
Звук:
Аудио rus: 48 kHz, AC3 Dolby Digital, 2/0 (L,R) ch, ~192 kbps | OmskBird
Субтитры: отсутствуют
Реклама: присутствует
Семпл

Релиз: OmskBird
Перевод: Никита Коваль
Роли озвучивали: Павел Ярощик, Алексей Гнеушев, Ольга Федорова
Звукорежиссер: Павел Квентов
Постер: Ксения Просветова

General
Complete name : G:FilmsThe.Expanse.S02.400p.omskBirdThe.Expanse.S02E01.400p.WEB-DLRip.OmskBird.avi
Format : AVI
Format/Info : Audio Video Interleave
File size : 662 MiB
Duration : 43mn 56s
Overall bit rate : 2 105 Kbps
Writing application : VirtualDubMod 1.5.10.3 (build 2550/release)
Writing library : VirtualDubMod build 2550/release

Video
ID : 0
Format : MPEG-4 Visual
Format profile : Advanced Simple@L5
Format settings, BVOP : 1
Format settings, QPel : No
Format settings, GMC : No warppoints
Format settings, Matrix : Default (MPEG)
Codec ID : XVID
Codec ID/Hint : XviD
Duration : 43mn 56s
Bit rate : 1 903 Kbps
Width : 720 pixels
Height : 400 pixels
Display aspect ratio : 16:9
Frame rate : 23.976 (23976/1000) fps
Color space : YUV
Chroma subsampling : 4:2:0
Bit depth : 8 bits
Scan type : Progressive
Compression mode : Lossy
Bits/(Pixel*Frame) : 0.276
Stream size : 598 MiB (90%)
Writing library : XviD 73

Audio
ID : 1
Format : AC-3
Format/Info : Audio Coding 3
Mode extension : CM (complete main)
Format settings, Endianness : Big
Codec ID : 2000
Duration : 43mn 56s
Bit rate mode : Constant
Bit rate : 192 Kbps
Channel(s) : 2 channels
Channel positions : Front: L R
Sampling rate : 48.0 KHz
Frame rate : 31.250 fps (1536 spf)
Compression mode : Lossy
Stream size : 60.4 MiB (9%)
Alignment : Split accross interleaves
Interleave, duration : 42 ms (1.00 video frame)
Interleave, preload duration : 500 ms


[color=brown]
Внимание! Раздача ведётся путём добавления новых серий; при каждом добавлении создётся новый торрент. Чтобы начать докачку новой серии, пользователям необходимо сделать следующее:
Остановить скачивание.
Удалить старый торрент у себя из клиента (старые серии удалять не надо).
Скачать новый торрент и запустить его у себя в клиенте вместо старого, при этом указать клиенту путь в старую папку куда и должно происходить скачивание новых серий.
Ваш клиент при этом должен произвести хеширование (проверку) старой папки (если не производит сам - помогите ему сделать это), и будет докачивать только те серии которых у вас ещё нет. Старые серии при этом не удаляются, а продолжают раздаваться!
Eсли вы уже удалили старые серии, то предотвратить повторную закачку старых серий можно, отжав галочку в соответсвующих местах при запуске нового торрента. По возможности, желательно не удалять старые серии как можно дольше чтобы релизёр не столько продолжал раздавать старые серии, а смог сконцентрироваться на новых.


Релиз от: OmskBird
Не забывайте говорить Спасибо. Не уходите с раздачи!   
Торрент: Зарегистрирован [03 апр 2018, 23:31] Для скачивания .torrent
необходима регистрация
Или скачать с помощью
MediaGet
Статус:
Проверен
 
.torrent скачан: 0 раз
Хэш: 3c38d61f2c3b1f4aeed68a4e05161c63d23ad9c7
Размер: 8.23 ГБ (8 832 182 272 байт)
   Стать Автором раздачи
   
Цитата
  • Похожие торренты
    Ответы
    Просмотры
    Последнее сообщение

Вернуться в Пространство / The Expanse

Кто сейчас на конференции

Сейчас эту тему просматривают: нет зарегистрированных пользователей и гости: 1